Loading...
Error

Владислав Дворжецкий. Неприкаянный (Георгий Ананов) [2009 г., документальный, биография, кинематограф, TVRip]

Статистика раздачи
Размер:  574 MB   |    Зарегистрирован:  1 месяц 13 дней   |    Скачан:  2 раза

Полного источника не было: 10 часов

Сидов:  0  |  0 KB/s  ]   Личеров:  0  |  0 KB/s  ]

* - сиды/пиры с внешних источников

   
 
Автор Сообщение

ARI71 Пол:Муж

28-Окт-2016 06:42

Владислав Дворжецкий. Неприкаянный


Год выпуска: 2009
Жанр: документальный, биография, кинематограф
Страна: Россия ЭМБ фильм, Первый канал
Режиссер: Георгий Ананов
Сюжет фильма:
Актер Владислав Дворжецкий прожил трудную и короткую жизнь. Он не шел, а бежал по жизни. Из города в город. От женщины к женщине. От профессии к профессии. Однако, Дворжецкий все время оставался одиноким. А когда, казалось, обрел дом и личное счастье, его жизнь трагически оборвалась. Ему было всего 39 лет.

Владисла́в Ва́цлавович Дворже́цкий (1939 — 1978) — советский актёр театра и кино.
Качество видео: TVRip

Продолжительность: 00:52:11
Формат: AVI
Видео: DivX 5, 704x432, 1400 kbps
Аудио: русский, (оригинал), MP3 2.0, 128.00 kbps

Код:

Общее
Полное имя : D:\Владислав Дворжецкий. Неприкаянный.avi
Формат : AVI
Формат/Информация : Audio Video Interleave
Размер файла : 574 Мбайт
Продолжительность : 52 м.
Общий поток : 1538 Кбит/сек
Программа кодирования : VirtualDubModRus 1.5.10.2 (build 2542/release)
Библиотека кодирования : VirtualDubMod build 2542/release

Видео
Идентификатор : 0
Формат : MPEG-4 Visual
Параметр BVOP формата : 1
Параметр QPel формата : Нет
Параметр GMC формата : Без точки перехода
Параметр матрицы формата : Default (H.263)
Режим смешивания : Сжатый битовый поток
Идентификатор кодека : DX50
Идентификатор кодека/Подсказка : DivX 5
Продолжительность : 52 м.
Битрейт : 1400 Кбит/сек
Ширина : 704 пикселя
Высота : 432 пикселя
Соотношение сторон : 16:10
Частота кадров : 25,000 кадров/сек
Цветовое пространство : YUV
Субдискретизация насыщенности : 4:2:0
Битовая глубина : 8 бит
Тип развёртки : Прогрессивная
Метод сжатия : С потерями
Бит/(Пиксели*Кадры) : 0.184
Размер потока : 523 Мбайт (91%)
Библиотека кодирования : DivX 6.8.3-6.8.4 (UTC 2008-06-07)

Аудио
Идентификатор : 1
Формат : MPEG Audio
Версия формата : Version 1
Профиль формата : Layer 3
Идентификатор кодека : 55
Идентификатор кодека/Подсказка : MP3
Продолжительность : 52 м.
Вид битрейта : Постоянный
Битрейт : 128 Кбит/сек
Каналы : 2 канала
Частота : 48,0 КГц
Метод сжатия : С потерями
Размер потока : 47,8 Мбайт (8%)
Выравнивание : Соединение по промежуткам
Продолжительность промежутка : 40 мс. (1,00 видеокадр)
Время предзагрузки промежутка : 504 мс.
Библиотека кодирования : LAME3.97 
Настройки программы : -m s -V 4 -q 2 -b 128
picpicpicpicpic
Для увеличения картинки щелкните мышкой по превью

Этот торрент недоступен для скачивания без регистрации, однако доступен по публичной magnet-ссылке (источники с публичных трекеров). Перед использованием ссылки прочтите, пожалуйста Пользовательское соглашение, а также как можно дольше оставайтесь на раздаче! Для того, чтобы скачать сам торрент-файл (который видит больше источников), а также для того, чтобы поблагодарить релизера, вам необходимо зарегистрироваться. Если регистрироваться лень - вы можете также попробовать скачать релиз по нашим партнерским ссылкам ниже.

[underverse.su].t71631.torrent
Трекер: Зарегистрирован   [ 28.10.2016 06:42 ]  

Статус: проверено (by ARI71 at 28.10.2016 06:44)
Поблагодарили: пока никто не поблагодарил...
Тип торрента: публичный - доступные источники с открытых трекеров: 
Размер: 574 MB (занимает 0,13 DVDR, для записи нужно 1 болванка DVDR/RW)
 
 
Похожие темы
Форум Тема Автор Торрент Отв. Посл. сооб.
Учебники, лекции, методическая литература Владислав Грабеньский - История польского народа [2006 г., история, PDF] RUS Паукан
0 | 0

0 | 365

13

22.09.2014 12:13

Гуманитарные науки, история, публицистика Владислав Артемов - Духи и существа потустороннего мира [2014 г., эзотерика, DJVU] RUS Паукан
3 | 0

0 | 365

12

28.10.2014 12:41

Гуманитарные науки, история, публицистика Владислав Мальцев, Кирилл Аверьянов-Минский - Белорусский национализм против русского мира [2016 г., публицистика, история, FB2] RUS Паукан
11 | 0

1 | 285

3

15.11.2016 14:39

Другие аудиокниги Владислав Крапивин - Журавленок и молнии (2008) [MP3, 128 kbps] Evgenii82
20 | 0

0 | 361

2

28.04.2016 09:46

Ужасы, мистика Владислав Крапивин - Трое с площади Карронад (2014) [MP3, 56 kbps] Evgenii82
1 | 0

0 | 714

4

17.04.2015 14:13


Яндекс.Метрика powered by Sphinx


В Н И М А Н И Е
Сайт не распространяет и не хранит электронные версии произведений, а лишь бесплатно и без коммерческой выгоды (не требуя взамен платы,
SMS и т.д.) предоставляет доступ к создаваемому пользователями каталогу ссылок на торрент-файлы, которые содержат только списки хеш-сумм.
Убедительная просьба с жалобами обращаться напрямую к пользователю, разместившему торрент файл.

Вверх