Loading...
Error

Серая братва (Маргарита Шахина) [2009 г., документальный, орнитология, SatRip]

Статистика раздачи
Размер:  544 MB   |    Зарегистрирован:  1 месяц 10 дней   |    Скачан:  0 раз

Полного источника не было: 1 месяц 7 дней

Сидов:  0  |  0 KB/s  ]   Личеров:  0  |  0 KB/s  ]

* - сиды/пиры с внешних источников

   
 
Автор Сообщение

ARI71 Пол:Муж

27-Окт-2016 08:56

Серая братва


Год выпуска: 2009
Жанр: документальный, орнитология
Страна: Россия ВГТРК
Режиссер: Маргарита Шахина
Сюжет фильма:
Вороны веками живут рядом с людьми. В науке их так и называют - синантропы, что в переводе с латыни значит "вместе с человеком". Зимой в Москве бывает до миллиона ворон, то есть каждый одиннадцатый житель столицы - ворона. Старожилы замечают, как изменилось поведение птиц за последние несколько десятилетий. Они осмелели. Если раньше ворона не подпускала к себе человека, животное, машину ближе чем на четыре-пять метров, то сегодня пернатые чувствуют себя хозяевами положения. В городе у птиц совершенно нет врагов. Зато здесь множество укрытий и неограниченный запас пищи. С 1958 года на биологическом факультете МГУ ведутся постоянные наблюдения за этими птицами. Изучая "рассудочную деятельность" ворон, ученые пришли к сенсационным выводам. Вороны - интеллектуалы птичьего мира - умеют "мыслить" и просчитывать ситуации на несколько ходов вперед!..
Качество видео: SatRip

Продолжительность: 00:43:43
Формат: AVI
Видео: XviD, 720x544, 1537 kbps
Аудио: русский, (оригинал), AC3 2.0, 192.00 kbps

Код:

Общее
Полное имя : D:\Серая братва.2009.WEBRip.Generalfilm.avi
Формат : AVI
Формат/Информация : Audio Video Interleave
Размер файла : 544 Мбайт
Продолжительность : 43 м.
Общий поток : 1738 Кбит/сек
Программа кодирования : VirtualDubMod 1.5.10.3 | www.virtualdub-fr.org || (build 2550/release)
Библиотека кодирования : VirtualDubMod build 2550/release

Видео
Идентификатор : 0
Формат : MPEG-4 Visual
Профиль формата : Advanced Simple@L5
Параметр BVOP формата : 2
Параметр QPel формата : Нет
Параметр GMC формата : Без точки перехода
Параметр матрицы формата : Выборочная
Идентификатор кодека : XVID
Идентификатор кодека/Подсказка : XviD
Продолжительность : 43 м.
Битрейт : 1537 Кбит/сек
Ширина : 720 пикселей
Высота : 544 пикселя
Соотношение сторон : 4:3
Частота кадров : 25,000 кадров/сек
Цветовое пространство : YUV
Субдискретизация насыщенности : 4:2:0
Битовая глубина : 8 бит
Тип развёртки : Прогрессивная
Метод сжатия : С потерями
Бит/(Пиксели*Кадры) : 0.157
Размер потока : 481 Мбайт (88%)
Библиотека кодирования : XviD 73

Аудио
Идентификатор : 1
Формат : AC-3
Формат/Информация : Audio Coding 3
Расширение режима : CM (complete main)
Параметр Endianness формата : Big
Идентификатор кодека : 2000
Продолжительность : 43 м.
Вид битрейта : Постоянный
Битрейт : 192 Кбит/сек
Каналы : 2 канала
Расположение каналов : Front: L R
Частота : 48,0 КГц
Частота кадров : 31,250 кадров/сек (1536 spf)
Метод сжатия : С потерями
Размер потока : 60,0 Мбайт (11%)
Выравнивание : Разделение по промежуткам
Продолжительность промежутка : 40 мс. (1,00 видеокадр)
Время предзагрузки промежутка : 500 мс.
picpicpicpicpic
Для увеличения картинки щелкните мышкой по превью

Этот торрент недоступен для скачивания без регистрации, однако доступен по публичной magnet-ссылке (источники с публичных трекеров). Перед использованием ссылки прочтите, пожалуйста Пользовательское соглашение, а также как можно дольше оставайтесь на раздаче! Для того, чтобы скачать сам торрент-файл (который видит больше источников), а также для того, чтобы поблагодарить релизера, вам необходимо зарегистрироваться. Если регистрироваться лень - вы можете также попробовать скачать релиз по нашим партнерским ссылкам ниже.

[underverse.su].t71596.torrent
Трекер: Зарегистрирован   [ 27.10.2016 08:56 ]  

Статус: проверено (by ARI71 at 27.10.2016 08:57)
Поблагодарили: 1 человек
Тип торрента: публичный - доступные источники с открытых трекеров: 
Размер: 544 MB (занимает 0,12 DVDR, для записи нужно 1 болванка DVDR/RW)
 
 

ARI71 Пол:Муж

27-Окт-2016 08:58

Приятного всем просмотра!

Голосуй за трекер!!




Яндекс.Метрика powered by Sphinx


В Н И М А Н И Е
Сайт не распространяет и не хранит электронные версии произведений, а лишь бесплатно и без коммерческой выгоды (не требуя взамен платы,
SMS и т.д.) предоставляет доступ к создаваемому пользователями каталогу ссылок на торрент-файлы, которые содержат только списки хеш-сумм.
Убедительная просьба с жалобами обращаться напрямую к пользователю, разместившему торрент файл.

Вверх