Loading...
Error

Леонид Енгибаров, знакомьтесь! (Владимир Лисакович) [1966 г., документальный, цирк, история, культура, VHSRip]

Статистика раздачи
Размер:  425 MB   |    Зарегистрирован:  1 месяц 12 дней   |    Скачан:  1 раз

Полного источника не было: 1 месяц 9 дней

Сидов:  0  |  0 KB/s  ]   Личеров:  0  |  0 KB/s  ]

* - сиды/пиры с внешних источников

   
 
Автор Сообщение

ARI71 Пол:Муж

25-Окт-2016 08:22

Леонид Енгибаров, знакомьтесь!


Год выпуска: 1966
Жанр: документальный, цирк, история, культура
Страна: СССР Центральная студия документальных фильмов
Режиссер: Владимир Лисакович
В ролях: Леонид Енгибаров, Зиновий Гердт
Сюжет фильма:
Леонид Енгибаров на манеже, эстраде и за кулисами. Цирковые, эстрадные миниатюры: "Зонтики", "Акробат", "Скрипка", "Скакалка", "Тарелочки", "Микрофон", "Канатоходец", "Укротитель", "На вокзале", "В тире", "Жизнь человека", "Калейдоскоп". Текст читает Зиновий Гердт.

Леонид Георгиевич Енгиба́ров (арм. Լեոնիդ Ենգիբարյան; 15 марта 1935, Москва — 25 июля 1972, Москва) — клоун-мим, выступавший в амплуа «грустный клоун», писатель. Народный артист Армянской ССР (1971)
Качество видео: VHSRip

Продолжительность: 00:28:22
Формат: AVI
Видео: XviD, 480x384, 1954 kbps
Аудио: русский, (оригинал), MP3 2.0, 128.00 kbps

Рип от kosta52

Код:

Общее
Полное имя : D:\Леонид Енгибаров, знакомьтесь.1966.VHSRip.kosta52_xvid.avi
Формат : AVI
Формат/Информация : Audio Video Interleave
Размер файла : 425 Мбайт
Продолжительность : 28 м.
Общий поток : 2095 Кбит/сек
Программа кодирования : Lavf56.36.100

Видео
Идентификатор : 0
Формат : xvid
Идентификатор кодека : xvid
Продолжительность : 28 м.
Битрейт : 1954 Кбит/сек
Ширина : 480 пикселей
Высота : 384 пикселя
Соотношение сторон : 5:4
Частота кадров : 25,000 кадров/сек
Тип развёртки : Прогрессивная
Бит/(Пиксели*Кадры) : 0.424
Размер потока : 397 Мбайт (93%)

Аудио
Идентификатор : 1
Формат : MPEG Audio
Версия формата : Version 1
Профиль формата : Layer 3
Режим : Joint stereo
Расширение режима : MS Stereo
Идентификатор кодека : 55
Идентификатор кодека/Подсказка : MP3
Продолжительность : 28 м.
Вид битрейта : Постоянный
Битрейт : 128 Кбит/сек
Каналы : 2 канала
Частота : 48,0 КГц
Метод сжатия : С потерями
Размер потока : 26,0 Мбайт (6%)
Выравнивание : Соединение по промежуткам
Продолжительность промежутка : 24 мс. (0,60 видеокадр)
Время предзагрузки промежутка : 72 мс.
Библиотека кодирования : LAME3.99.5
picpicpicpic
Для увеличения картинки щелкните мышкой по превью

Этот торрент недоступен для скачивания без регистрации, однако доступен по публичной magnet-ссылке (источники с публичных трекеров). Перед использованием ссылки прочтите, пожалуйста Пользовательское соглашение, а также как можно дольше оставайтесь на раздаче! Для того, чтобы скачать сам торрент-файл (который видит больше источников), а также для того, чтобы поблагодарить релизера, вам необходимо зарегистрироваться. Если регистрироваться лень - вы можете также попробовать скачать релиз по нашим партнерским ссылкам ниже.

[underverse.su].t71526.torrent
Трекер: Зарегистрирован   [ 25.10.2016 08:22 ]  

Статус: проверено (by ARI71 at 25.10.2016 08:25)
Поблагодарили: 1 человек
Тип торрента: публичный - доступные источники с открытых трекеров: 
Размер: 425 MB (занимает 0,09 DVDR, для записи нужно 1 болванка DVDR/RW)
 
 

ARI71 Пол:Муж

25-Окт-2016 08:25

Приятного всем просмотра!

Голосуй за трекер!!




Яндекс.Метрика powered by Sphinx


В Н И М А Н И Е
Сайт не распространяет и не хранит электронные версии произведений, а лишь бесплатно и без коммерческой выгоды (не требуя взамен платы,
SMS и т.д.) предоставляет доступ к создаваемому пользователями каталогу ссылок на торрент-файлы, которые содержат только списки хеш-сумм.
Убедительная просьба с жалобами обращаться напрямую к пользователю, разместившему торрент файл.

Вверх