Loading...
Error

Заговор / Conspiracy (1-6 серии из 12) / (Пол Нельсон) [2015 г., документальный, история, кинохроника, SatRip] VO (SDI Media)

Статистика раздачи
Размер:  3,78 GB   |    Зарегистрирован:  4 дня   |    Скачан:  0 раз

Полного источника не было: 2 дня 7 часов

Сидов:  0  |  0 KB/s  ]   Личеров:  0  |  0 KB/s  ]

* - сиды/пиры с внешних источников

   
 
Автор Сообщение

ARI71 Пол:Муж

25-Окт-2016 06:55

Заговор / Conspiracy (1-6 серии из 12)


Год выпуска: 2015
Жанр: документальный, история, кинохроника
Страна: Великобритания Channel 5 Broadcasting Ltd.
Режиссер: Пол Нельсон
Текст читает: Михаил Карасиков
Сюжет фильма:
В этой захватывающей передаче мы постараемся найти призрачную границу между фактами и вымыслом. Каждая серия расскажет нам о различных теориях заговора: от медиамагната под прикрытием МИ-6 и шпиона Моссада, от предполагаемого места посадки НЛО, скрытого правительством Великобритании, до скрытого мира Голливуда. Все эти теории заговора намерены открыть нам глаза на те мифы, которые мы приняли на веру. Действительно ли Гитлер умер в 1945? Совершила ли русская атомная подлодка попытку запуска ядерной ракеты в 1968 у берегов Гавайев? Была ли принцесса Диана безжалостно убита членами собственной семьи? В этой передаче мы узнаем подробности, которые покажут, насколько эти теории близки к реальности.


Качество видео: SatRip

Продолжительность: 6x ~00:45:02
Формат: AVI
Видео: XviD, 704x400, ~1795 kbps
Аудио: русский, одноголосый [профессиональный, SDI Media], AC3 2.0, ~192.00 kbps

Автор рипа: skorpionN

Код:

Общее
Полное имя : D:\Conspiracy\01_The Death of Hitler.avi
Формат : AVI
Формат/Информация : Audio Video Interleave
Размер файла : 642 Мбайт
Продолжительность : 45 м.
Общий поток : 1994 Кбит/сек
Программа кодирования : TMPGEnc Video Mastering Works 5 Version. 5.0.6.38
Библиотека кодирования : TMPGEnc Video Mastering Works 5 Version. 5.0.6.38

Видео
Идентификатор : 0
Формат : MPEG-4 Visual
Профиль формата : Advanced Simple@L5
Параметр BVOP формата : 2
Параметр QPel формата : Нет
Параметр GMC формата : Без точки перехода
Параметр матрицы формата : Default (H.263)
Режим смешивания : Сжатый битовый поток
Идентификатор кодека : XVID
Идентификатор кодека/Подсказка : XviD
Продолжительность : 45 м.
Битрейт : 1795 Кбит/сек
Ширина : 704 пикселя
Высота : 400 пикселей
Соотношение сторон : 16:9
Частота кадров : 25,000 кадров/сек
Цветовое пространство : YUV
Субдискретизация насыщенности : 4:2:0
Битовая глубина : 8 бит
Тип развёртки : Прогрессивная
Метод сжатия : С потерями
Бит/(Пиксели*Кадры) : 0.255
Размер потока : 578 Мбайт (90%)
Библиотека кодирования : XviD 73

Аудио
Идентификатор : 1
Формат : AC-3
Формат/Информация : Audio Coding 3
Расширение режима : CM (complete main)
Параметр Endianness формата : Big
Идентификатор кодека : 2000
Продолжительность : 45 м.
Вид битрейта : Постоянный
Битрейт : 192 Кбит/сек
Каналы : 2 канала
Расположение каналов : Front: L R
Частота : 48,0 КГц
Частота кадров : 31,250 кадров/сек (1536 spf)
Метод сжатия : С потерями
Задержка видео : 32 мс.
Размер потока : 61,8 Мбайт (10%)
Выравнивание : Соединение по промежуткам
Продолжительность промежутка : 240 мс. (6,00 видеокадров)
Время предзагрузки промежутка : 224 мс.
01. Смерть Гитлера / The Death of Hitler
Как гласит история, Гитлер совершил самоубийство в 1945 году, но британский журналист считает, что кровь в бункере была лишь для отвода глаз. Если эта теория верна, то куда исчез Гитлер?

02. Король нацист / The Nazi King
В этой серии мы рассмотрим шокирующую теорию, гласящую о том, что бывший король Соединённого Королевства Эдуард VIII и его жена Уоллис во время Второй мировой были скрытыми нацистами.

03. Тайны эпохи холодной войны / The Cold War Files
Кто, когда и зачем развязал холодную войну? Как погибла советская атомная подводная лодка? Кто стоял за похищением и убийством бывшего премьер-министра Италии Альдо Моро и какую тайну скрывают волны Балтийского моря?

04. Дело лорда Лукана / The Lord Lucan Dossier
Была ли смерть самого известного в мире ребенка результатом нацистских опытов по евгенике? Был ли известный британский медиамагнат убит в ходе спецоперации? Стал ли влиятельный американский профсоюзный деятель жертвой мафии? Какова история самого известного беглеца лорда Лукана?

05. Голливуд / The Hollywood Files
Убийство Элизабет Шорт, хакерский взлом Sony Pictures и смерти суперзвезды кунг-фу Брюса Ли и его сына. С этими событиями связано множество теорий, которые мы сегодня и постараемся осветить.

06. Инопланетяне под прикрытием / Alien Cover-Up
Пришельцы. Оказывается, что в Великобритании также часто видели НЛО, как и в США, и в сегодняшнем выпуске мы постараемся подробнее узнать о тайнах официальных контактов с инопланетянами.

07. Assassinations
08. Murder at the Vatican
09. Faking the Moon Landings
10. The Pearl Harbour Cover Up
11. Drugs, Pop, Punk and Death
12. The Lockerbie Plot
picpicpicpic
Для увеличения картинки щелкните мышкой по превью

Этот торрент недоступен для скачивания без регистрации, однако доступен по публичной magnet-ссылке (источники с публичных трекеров). Перед использованием ссылки прочтите, пожалуйста Пользовательское соглашение, а также как можно дольше оставайтесь на раздаче! Для того, чтобы скачать сам торрент-файл (который видит больше источников), а также для того, чтобы поблагодарить релизера, вам необходимо зарегистрироваться. Если регистрироваться лень - вы можете также попробовать скачать релиз по нашим партнерским ссылкам ниже.

[underverse.su].t74601.torrent
Трекер: Зарегистрирован   [ 29.11.2016 11:03 ]  

Статус: T временная (by ARI71 at 29.11.2016 14:07)
Поблагодарили: пока никто не поблагодарил...
Тип торрента: публичный - доступные источники с открытых трекеров: 
Размер: 3,78 GB (занимает 0,86 DVDR, для записи нужно 1 болванка DVDR/RW)
 
 


Последний раз редактировалось: ARI71 (29.11.2016 11:03), всего редактировалось 5 раз(а)

ARI71 Пол:Муж

25-Окт-2016 06:56

Приятного всем просмотра!

Голосуй за трекер!!



ARI71 Пол:Муж

02-Ноя-2016 10:18

Добавлена новая серия: 06. Инопланетяне под прикрытием / Alien Cover-Up

Яндекс.Метрика powered by Sphinx


В Н И М А Н И Е
Сайт не распространяет и не хранит электронные версии произведений, а лишь бесплатно и без коммерческой выгоды (не требуя взамен платы,
SMS и т.д.) предоставляет доступ к создаваемому пользователями каталогу ссылок на торрент-файлы, которые содержат только списки хеш-сумм.
Убедительная просьба с жалобами обращаться напрямую к пользователю, разместившему торрент файл.

Вверх