Loading...
Error

Замки: История укреплений Британии / Castles: Britain's Fortified History (1-3 серии из 3) / (Бен Саутуэлл) [2014 г., документальный, постановочный, история, археология, исследования, HDTVRip] DVO (SDI Media)

Статистика раздачи
Размер:  1,99 GB   |    Зарегистрирован:  1 месяц 15 дней   |    Скачан:  1 раз

Полного источника не было: 25 дней

Сидов:  0  |  0 KB/s  ]   Личеров:  0  |  0 KB/s  ]

* - сиды/пиры с внешних источников

   
 
Автор Сообщение

ARI71 Пол:Муж

24-Окт-2016 11:16

Замки: История укреплений Британии / Castles: Britain's Fortified History (1-3 серии из 3)


Год выпуска: 2014
Жанр: документальный, постановочный, история, археология, исследования
Страна: Великобритания BBC Arts Production Bristol
Режиссер: Бен Саутуэлл
Ведущий: - историк Сэм Уиллис
Сюжет фильма:
Историк Сэм Уиллис рассказывает об истории британских замков, а также об уникальной роли, которую они сыграли в британской истории, искусстве и литературе.
Качество видео: HDTVRip

Продолжительность: 3 x ~00:50:00
Формат: AVI
Видео: XviD, 720x400, 1700 kbps
Аудио: русский, двухголосый закадровый [профессиональный, SDI Media], AC3 2.0, ~192.00 kbps
(тех. данные всех серий идентичны)

Автор Рипа: RockeT

Код:

Общее
Полное имя : D:\BBC_Castles Britain's Fortified History.HDTVRip.by RockeT [KaztorrentS]\01_Instruments of Invasion.HDTVRip.by RockeT [KaztorrentS].avi
Формат : AVI
Формат/Информация : Audio Video Interleave
Размер файла : 681 Мбайт
Продолжительность : 50 м.
Общий поток : 1902 Кбит/сек
Программа кодирования : VirtualDubMod 1.5.10.3 | www.virtualdub-fr.org || (build 2550/release)
Библиотека кодирования : VirtualDubMod build 2550/release

Видео
Идентификатор : 0
Формат : MPEG-4 Visual
Профиль формата : Advanced Simple@L5
Параметр BVOP формата : 1
Параметр QPel формата : Нет
Параметр GMC формата : Без точки перехода
Параметр матрицы формата : Default (MPEG)
Идентификатор кодека : XVID
Идентификатор кодека/Подсказка : XviD
Продолжительность : 50 м.
Битрейт : 1700 Кбит/сек
Ширина : 720 пикселей
Высота : 400 пикселей
Соотношение сторон : 16:9
Частота кадров : 25,000 кадров/сек
Цветовое пространство : YUV
Субдискретизация насыщенности : 4:2:0
Битовая глубина : 8 бит
Тип развёртки : Прогрессивная
Метод сжатия : С потерями
Бит/(Пиксели*Кадры) : 0.236
Размер потока : 608 Мбайт (89%)
Библиотека кодирования : XviD 1.2.1 (UTC 2008-12-04)

Аудио
Идентификатор : 1
Формат : AC-3
Формат/Информация : Audio Coding 3
Расширение режима : CM (complete main)
Параметр Endianness формата : Big
Идентификатор кодека : 2000
Продолжительность : 50 м.
Вид битрейта : Постоянный
Битрейт : 192 Кбит/сек
Каналы : 2 канала
Расположение каналов : Front: L R
Частота : 48,0 КГц
Частота кадров : 31,250 кадров/сек (1536 spf)
Метод сжатия : С потерями
Размер потока : 68,7 Мбайт (10%)
Выравнивание : Разделение по промежуткам
Продолжительность промежутка : 40 мс. (1,00 видеокадр)
Время предзагрузки промежутка : 500 мс.
picpicpicpicpic
Для увеличения картинки щелкните мышкой по превью

Этот торрент недоступен для скачивания без регистрации, однако доступен по публичной magnet-ссылке (источники с публичных трекеров). Перед использованием ссылки прочтите, пожалуйста Пользовательское соглашение, а также как можно дольше оставайтесь на раздаче! Для того, чтобы скачать сам торрент-файл (который видит больше источников), а также для того, чтобы поблагодарить релизера, вам необходимо зарегистрироваться. Если регистрироваться лень - вы можете также попробовать скачать релиз по нашим партнерским ссылкам ниже.

[underverse.su].t71502.torrent
Трекер: Зарегистрирован   [ 24.10.2016 11:16 ]  

Статус: проверено (by ARI71 at 24.10.2016 11:22)
Поблагодарили: пока никто не поблагодарил...
Тип торрента: публичный - доступные источники с открытых трекеров: 
Размер: 1,99 GB (занимает 0,45 DVDR, для записи нужно 1 болванка DVDR/RW)
 
 
Похожие темы
Форум Тема Автор Торрент Отв. Посл. сооб.
BBC Замки: История укреплений Британии / Castles: Britain's Fortified History (1-3 серии из 3) / (Бен Саутуэлл) [2014 г., документальный, постановочный, история, археология, исследования, HDTVRip 720p]... ARI71
4 | 0

2 | 789

2

17.10.2016 07:50

ARI71 Пол:Муж

24-Окт-2016 11:20

Приятного всем просмотра!

Голосуй за трекер!!




Яндекс.Метрика powered by Sphinx


В Н И М А Н И Е
Сайт не распространяет и не хранит электронные версии произведений, а лишь бесплатно и без коммерческой выгоды (не требуя взамен платы,
SMS и т.д.) предоставляет доступ к создаваемому пользователями каталогу ссылок на торрент-файлы, которые содержат только списки хеш-сумм.
Убедительная просьба с жалобами обращаться напрямую к пользователю, разместившему торрент файл.

Вверх