Loading...
Error

Оглушающий океан / Sonic Sea (Мишель Доэрти, Даниэл Хинерфельд) [2016 г., документальный, природа, экология, HDTVRip] DVO

Статистика раздачи
Размер:  742 MB   |    Зарегистрирован:  1 месяц 9 дней   |    Скачан:  3 раза

Полного источника не было: 4 часа

Сидов:  0  |  0 KB/s  ]   Личеров:  0  |  0 KB/s  ]

* - сиды/пиры с внешних источников

   
 
Автор Сообщение

ARI71 Пол:Муж

24-Окт-2016 07:40

Оглушающий океан / Sonic Sea


Год выпуска: 2016
Жанр: документальный, природа, экология
Страна: США , Канада , Норвегия , Багамы , Мадагаскар Discovery Channel
Режиссер: Мишель Доэрти, Даниэл Хинерфельд
В ролях: Жан-Мишель Кусто, Сильвия Эрл Ф.Д., Лейла Хэч, Майкл Джесни, Рэйчел, МакАдамс, Кэти Меткалф, Кейти Мур
Сюжет фильма:
Океан становится все оглушительнее, и от этого страдают его обитатели – например, из-за высокой интенсивности шума расстояния для общения синих китов сократились на 90%, а уровень шума кораблей увеличивается вдвое каждое десятилетие в течение последних 40 лет! Эти данные были опубликованы в докладе Международного фонда защиты животных «Шум в океане: приглушите звук». О том, какой угрозе подвергаются морские животные из-за деятельности человека, который нарушает тишину в их доме, и рассказывает новый фильм Discovery Channel. Создатели картины использовали уникальные подводные съемки и современную компьютерную графику, а также пригласили в качестве экспертов ведущих океанологов, биологов, экологов и легендарного музыканта Стинга, известного не только своими композициями, но и проектами по защите природы.


Качество видео: HDTVRip

Продолжительность: 00:59:29
Формат: AVI
Видео: XviD, 720x400, 1541 kbps
Аудио: русский, двухголосый закадровый [профессиональный], AC3 2.0, 192.00 kbps

Релиз от: ishana7709

Код:

Общее
Полное имя : D:\Оглушающий океан. HitWay.avi
Формат : AVI
Формат/Информация : Audio Video Interleave
Размер файла : 742 Мбайт
Продолжительность : 59 м.
Общий поток : 1744 Кбит/сек
Программа кодирования : VirtualDubMod 1.5.10.3 | www.virtualdub-fr.org || (build 2550/release)
Библиотека кодирования : VirtualDubMod build 2550/release

Видео
Идентификатор : 0
Формат : MPEG-4 Visual
Профиль формата : Advanced Simple@L5
Параметр BVOP формата : 1
Параметр QPel формата : Нет
Параметр GMC формата : Без точки перехода
Параметр матрицы формата : Выборочная
Идентификатор кодека : XVID
Идентификатор кодека/Подсказка : XviD
Продолжительность : 59 м.
Битрейт : 1541 Кбит/сек
Ширина : 720 пикселей
Высота : 400 пикселей
Соотношение сторон : 16:9
Частота кадров : 30,000 кадров/сек
Цветовое пространство : YUV
Субдискретизация насыщенности : 4:2:0
Битовая глубина : 8 бит
Тип развёртки : Прогрессивная
Метод сжатия : С потерями
Бит/(Пиксели*Кадры) : 0.178
Размер потока : 656 Мбайт (88%)
Библиотека кодирования : XviD 73

Аудио
Идентификатор : 1
Формат : AC-3
Формат/Информация : Audio Coding 3
Расширение режима : CM (complete main)
Параметр Endianness формата : Big
Идентификатор кодека : 2000
Продолжительность : 59 м.
Вид битрейта : Постоянный
Битрейт : 192 Кбит/сек
Каналы : 2 канала
Расположение каналов : Front: L R
Частота : 48,0 КГц
Частота кадров : 31,250 кадров/сек (1536 spf)
Метод сжатия : С потерями
Размер потока : 81,7 Мбайт (11%)
Выравнивание : Разделение по промежуткам
Продолжительность промежутка : 33 мс. (1,00 видеокадр)
Время предзагрузки промежутка : 500 мс.
picpicpicpicpic
Для увеличения картинки щелкните мышкой по превью

Этот торрент недоступен для скачивания без регистрации, однако доступен по публичной magnet-ссылке (источники с публичных трекеров). Перед использованием ссылки прочтите, пожалуйста Пользовательское соглашение, а также как можно дольше оставайтесь на раздаче! Для того, чтобы скачать сам торрент-файл (который видит больше источников), а также для того, чтобы поблагодарить релизера, вам необходимо зарегистрироваться. Если регистрироваться лень - вы можете также попробовать скачать релиз по нашим партнерским ссылкам ниже.

[underverse.su].t71498.torrent
Трекер: Зарегистрирован   [ 24.10.2016 07:40 ]  

Статус: проверено (by ARI71 at 24.10.2016 07:44)
Поблагодарили: 2 человека
Тип торрента: публичный - доступные источники с открытых трекеров: 
Размер: 742 MB (занимает 0,17 DVDR, для записи нужно 1 болванка DVDR/RW)
 
 

ARI71 Пол:Муж

24-Окт-2016 07:45

Приятного всем просмотра!

Голосуй за трекер!!




Яндекс.Метрика powered by Sphinx


В Н И М А Н И Е
Сайт не распространяет и не хранит электронные версии произведений, а лишь бесплатно и без коммерческой выгоды (не требуя взамен платы,
SMS и т.д.) предоставляет доступ к создаваемому пользователями каталогу ссылок на торрент-файлы, которые содержат только списки хеш-сумм.
Убедительная просьба с жалобами обращаться напрямую к пользователю, разместившему торрент файл.

Вверх