Loading...
Error

Гиганты ледникового периода / Ice Age Giants (1-3 серии из 3) / (Марк Флауэрс) [2013 г., документальный, научно-познавательный, HDTVRip 720p] VO (SDI Media) + Original (Eng) + Sub (Eng)

Статистика раздачи
Размер:  5,11 GB   |    Зарегистрирован:  1 месяц 4 дня   |    Скачан:  2 раза
Сидов:  1  |  0 KB/s  ]   Личеров:  0  |  0 KB/s  ]

* - сиды/пиры с внешних источников

   
 
Автор Сообщение

ARI71 Пол:Муж

23-Окт-2016 09:30

Гиганты ледникового периода / Ice Age Giants (1-3 серии из 3)


Год выпуска: 2013
Жанр: документальный, научно-познавательный
Страна: Великобритания BBC
Режиссер: Марк Флауэрс
Ведущая: - Элис Робертс, текст читает - Виктория Бабанова
Сюжет фильма:
Во время последнего ледникового периода зима воцарилась на всей планете, изменив очертания континентов. Кровожадные саблезубые тигры преследовали свою добычу на обледенелых просторах Северной Америки. В Европе пещерные львы и медведи соперничали в борьбе за выживание, а косматые мамонты и носороги процветали на ледяном континенте. С началом потепления многие из них оказались под угрозой из-за таяния ледяных покровов и преследования первых людей-охотников. Профессор Элис Робертс применяет свои обширные знания и современную компьютерную анимацию, чтобы познакомить нас с исполинскими обитателями ледникового периода. Смотрите уникальный проект, который с помощью новейших технологий не только оживит существ ледниковой эры, но и покажет их образ жизни и привычки.
Благодаря чему животные смогли пережить ледниковую эру? Какое доисторическое существо было опаснейшим на планете? И как мегафауна боролось с холодом? Удивительные палеонтологические находки, сверхсовременная компьютерная графика и рискованное путешествие профессора Элис Робертс в прежних владений мамонтов и тигров позволит увидеть их жизнь изнутри!


Качество видео: HDTVRip 720p

Продолжительность: 3 x ~00:58:20
Формат: MKV
Видео: AVC (x264), 1280x720, ~3763 kbps
Аудио #1: русский, одноголосый [профессиональный, SDI Media], AC3 2.0, ~192.00 kbps
Аудио #2: английский, [оригинал], AC3 2.0, ~192.00 kbps
Субтитры: тип: вшитые, отключаемые, английский, формат: SRT

Автор рипа: skorpionN
Раздача ведётся путём добавления новых серий; при каждом добавлении создаётся новый торрент. Чтобы начать докачку новой серии, пользователям необходимо сделать следующее:
- Остановить скачивание.
- Удалить старый торрент у себя из клиента (старые серии удалять не надо).
- Скачать новый торрент и запустить его у себя в клиенте вместо старого, при этом указать клиенту путь в старую папку куда и должно происходить скачивание новых серий.

Код:

Общее
Уникальный идентификатор : 195948768574361057940732772252779088786 (0x936A5C2F45AF7075A2B96DD4B1F90B92)
Полное имя : D:\BBC_Ice Age Giants_720p\01_Land of the Sabre_Tooth.mkv
Формат : Matroska
Версия формата : Version 4 / Version 2
Размер файла : 1,69 Гбайт
Продолжительность : 58 м.
Общий поток : 4149 Кбит/сек
Дата кодирования : UTC 2016-10-22 20:21:47
Программа кодирования : mkvmerge v7.3.0 ('Nouages') 64bit built on Oct 22 2014 18:53:34
Библиотека кодирования : libebml v1.3.0 + libmatroska v1.4.1

Видео
Идентификатор : 1
Формат : AVC
Формат/Информация : Advanced Video Codec
Профиль формата : High@L4.1
Параметр CABAC формата : Да
Параметр ReFrames формата : 3 кадра
Идентификатор кодека : V_MPEG4/ISO/AVC
Продолжительность : 58 м.
Вид битрейта : Постоянный
Битрейт : 3763 Кбит/сек
Номинальный битрейт : 4000 Кбит/сек / 4000 Кбит/сек
Ширина : 1280 пикселей
Высота : 720 пикселей
Соотношение сторон : 16:9
Режим частоты кадров : Постоянный
Частота кадров : 25,000 кадров/сек
Стандарт вещания : NTSC
Цветовое пространство : YUV
Субдискретизация насыщенности : 4:2:0
Битовая глубина : 8 бит
Тип развёртки : Прогрессивная
Бит/(Пиксели*Кадры) : 0.163
Размер потока : 1,53 Гбайт (91%)
Библиотека кодирования : x264 core 114
Настройки программы : cabac=1 / ref=3 / deblock=1:0:0 / analyse=0x3:0x113 / me=hex / subme=7 / psy=1 / psy_rd=1.00:0.00 / mixed_ref=1 / me_range=16 / chroma_me=1 / trellis=1 / 8x8dct=1 / cqm=2 / deadzone=21,11 / fast_pskip=1 / chroma_qp_offset=-2 / threads=6 / sliced_threads=0 / slices=1 / nr=0 / decimate=1 / interlaced=0 / constrained_intra=0 / bframes=3 / b_pyramid=0 / b_adapt=1 / b_bias=0 / direct=1 / weightb=1 / open_gop=0 / weightp=2 / keyint=250 / keyint_min=25 / scenecut=40 / intra_refresh=0 / rc_lookahead=40 / rc=cbr / mbtree=1 / bitrate=4000 / ratetol=1.0 / qcomp=0.60 / qpmin=3 / qpmax=69 / qpstep=4 / vbv_maxrate=4000 / vbv_bufsize=3997 / nal_hrd=cbr / ip_ratio=1.40 / aq=1:1.00
Default : Да
Forced : Нет
Цветовой диапазон : Limited
Основные цвета : BT.709
Характеристики трансфера : BT.709
Коэффициенты матрицы : BT.709

Аудио #1
Идентификатор : 2
Формат : AC-3
Формат/Информация : Audio Coding 3
Расширение режима : CM (complete main)
Параметр Endianness формата : Big
Идентификатор кодека : A_AC3
Продолжительность : 58 м.
Вид битрейта : Постоянный
Битрейт : 192 Кбит/сек
Каналы : 2 канала
Расположение каналов : Front: L R
Частота : 48,0 КГц
Частота кадров : 31,250 кадров/сек (1536 spf)
Метод сжатия : С потерями
Размер потока : 80,1 Мбайт (5%)
Язык : Russian
Default : Да
Forced : Нет

Аудио #2
Идентификатор : 3
Формат : AC-3
Формат/Информация : Audio Coding 3
Расширение режима : CM (complete main)
Параметр Endianness формата : Big
Идентификатор кодека : A_AC3
Продолжительность : 58 м.
Вид битрейта : Постоянный
Битрейт : 192 Кбит/сек
Каналы : 2 канала
Расположение каналов : Front: L R
Частота : 48,0 КГц
Частота кадров : 31,250 кадров/сек (1536 spf)
Метод сжатия : С потерями
Размер потока : 80,1 Мбайт (5%)
Язык : English
Default : Нет
Forced : Да

Текст
Идентификатор : 4
Формат : UTF-8
Идентификатор кодека : S_TEXT/UTF8
Идентификатор кодека/Информация : UTF-8 Plain Text
Продолжительность : 58 м.
Битрейт : 67 бит/сек
Count of elements : 639
Размер потока : 28,8 Кбайт (0%)
Язык : English
Default : Нет
Forced : Нет
01. Край саблезубых тигров / Land of the Sabre-Tooth
Тысячи лет назад Северную Америку покрывала трехкилометровая толща льда, а населявшие ее гигантские мамонты и огромные косматые носороги становились добычей стай свирепых саблезубых кошек.

02. Край пещерных медведей / Land of the Cave-Bear
Профессор Элис Робертс едет в Европу и обнаруживает пещеру с останками доисторических льва и медведя. В тундростепи сохранились следы первых охотников-неандертальцев.

03. Последний из гигантов / Last of the Giants
В заключительной серии профессор Робертс исследует потепление на планете, приведшее к вымиранию большинства гигантов ледникового периода. Мы также узнаем трогательную историю мастодонта.
picpicpicpicpic
Для увеличения картинки щелкните мышкой по превью

Этот торрент недоступен для скачивания без регистрации, однако доступен по публичной magnet-ссылке (источники с публичных трекеров). Перед использованием ссылки прочтите, пожалуйста Пользовательское соглашение, а также как можно дольше оставайтесь на раздаче! Для того, чтобы скачать сам торрент-файл (который видит больше источников), а также для того, чтобы поблагодарить релизера, вам необходимо зарегистрироваться. Если регистрироваться лень - вы можете также попробовать скачать релиз по нашим партнерским ссылкам ниже.

[underverse.su].t71897.torrent
Трекер: Зарегистрирован   [ 02.11.2016 11:19 ]  

Статус: проверено (by ARI71 at 02.11.2016 11:21)
Поблагодарили: 1 человек
Тип торрента: публичный - доступные источники с открытых трекеров: 
Размер: 5,11 GB (занимает 1,17 DVDR, для записи нужно 2 болванки DVDR/RW)
 
 
Похожие темы
Форум Тема Автор Торрент Отв. Посл. сооб.
BBC Гиганты Ледникового периода / Ice Age Giants (1-3 серии из 3) / (Марк Флауэрс) [2013 г., документальный, научно-познавательный, история, HDTVRip] VO (SDI Media) ARI71
6 | 0

1 | 200

4

04.11.2016 07:14



Последний раз редактировалось: ARI71 (02.11.2016 11:19), всего редактировалось 2 раз(а)

ARI71 Пол:Муж

23-Окт-2016 09:31

Приятного всем просмотра!

Голосуй за трекер!!



ARI71 Пол:Муж

26-Окт-2016 15:18

Добавлена заключительная серия - 03. Последний из гигантов / Last of the Giants

    Обновление раздачи завершено!

Яндекс.Метрика powered by Sphinx


В Н И М А Н И Е
Сайт не распространяет и не хранит электронные версии произведений, а лишь бесплатно и без коммерческой выгоды (не требуя взамен платы,
SMS и т.д.) предоставляет доступ к создаваемому пользователями каталогу ссылок на торрент-файлы, которые содержат только списки хеш-сумм.
Убедительная просьба с жалобами обращаться напрямую к пользователю, разместившему торрент файл.

Вверх