Loading...
Error

Дикий Cевер / Wild North (1-3 серии из 3) / (Арне Наевра, Адам Шмедес) [2015 г., документальный, научно-познавательный, фауна, флора, SatRip] VO (SDI Media)

Статистика раздачи
Размер:  2,34 GB   |    Зарегистрирован:  1 месяц 1 день   |    Скачан:  0 раз

Полного источника не было: 1 месяц

Сидов:  0  |  0 KB/s  ]   Личеров:  0  |  0 KB/s  ]

* - сиды/пиры с внешних источников

   
 
Автор Сообщение

ARI71 Пол:Муж

23-Окт-2016 08:45

Дикий Cевер / Wild North (1-3 серии из 3)


Год выпуска: 2015
Жанр: документальный, научно-познавательный, фауна, флора
Страна: Дания Loce Film and Naturbilder
Режиссер: Арне Наевра, Адам Шмедес
Текст читает: Роман Антонович
Сюжет фильма:
Растительный и животный мир Норвегии, Швеции и Финляндии отражает атмосферу Севера, где на величественных и суровых просторах обитает множество самых различных существ. Песец охотится высоко в горах, белые совы парят в небе, в глубине леса медведица и ее детеныши наслаждаются первыми солнечными лучами, и орел высматривает свою добычу с высоты. Далеко на севере Шпицбергена белые медведи выслеживают моржей среди исчезающих льдов, а тупики страдают от голода на пустынных скалах. И это лишь немногие из восхитительных и опасных созданий дикого севера!
Качество видео: SatRip

Продолжительность: 3x ~00:51:56
Формат: AVI
Видео: XviD, 704x400, ~1948 kbps
Аудио: русский, одноголосый [профессиональный, SDI Media], AC3 2.0, ~192.00 kbps

Рип от: skorpionN

Код:

Общее
Полное имя : D:\Wild North\01_The Forest.avi
Формат : AVI
Формат/Информация : Audio Video Interleave
Размер файла : 798 Мбайт
Продолжительность : 51 м.
Общий поток : 2147 Кбит/сек
Программа кодирования : TMPGEnc Video Mastering Works 5 Version. 5.0.6.38
Библиотека кодирования : TMPGEnc Video Mastering Works 5 Version. 5.0.6.38

Видео
Идентификатор : 0
Формат : MPEG-4 Visual
Профиль формата : Advanced Simple@L5
Параметр BVOP формата : 2
Параметр QPel формата : Нет
Параметр GMC формата : Без точки перехода
Параметр матрицы формата : Default (H.263)
Режим смешивания : Сжатый битовый поток
Идентификатор кодека : XVID
Идентификатор кодека/Подсказка : XviD
Продолжительность : 51 м.
Битрейт : 1948 Кбит/сек
Ширина : 704 пикселя
Высота : 400 пикселей
Соотношение сторон : 16:9
Частота кадров : 25,000 кадров/сек
Цветовое пространство : YUV
Субдискретизация насыщенности : 4:2:0
Битовая глубина : 8 бит
Тип развёртки : Прогрессивная
Метод сжатия : С потерями
Бит/(Пиксели*Кадры) : 0.277
Размер потока : 723 Мбайт (91%)
Библиотека кодирования : XviD 73

Аудио
Идентификатор : 1
Формат : AC-3
Формат/Информация : Audio Coding 3
Расширение режима : CM (complete main)
Параметр Endianness формата : Big
Идентификатор кодека : 2000
Продолжительность : 51 м.
Вид битрейта : Постоянный
Битрейт : 192 Кбит/сек
Каналы : 2 канала
Расположение каналов : Front: L R
Частота : 48,0 КГц
Частота кадров : 31,250 кадров/сек (1536 spf)
Метод сжатия : С потерями
Размер потока : 71,3 Мбайт (9%)
Выравнивание : Соединение по промежуткам
Продолжительность промежутка : 240 мс. (6,00 видеокадров)
Время предзагрузки промежутка : 224 мс.
01. Лес / The Forest
В лесу медведица выводит детенышей на рыхлый весенний снег. Мы также увидим редкое зрелище - у глухарей начинается брачный период, но одну из птиц ждет ужасный конец.

02. Горы / The Mountains
Высоко в горах два редких хищника, песец и белая сова, успешно размножаются и сейчас заняты выращиванием детенышей. А орлы и вороны представляют собой угрозу для юных оленят.

03. Побережье / The Coast
Естественной добычей белых медведей являются тюлени, но таяние льдов вынуждает их охотиться на моржей – более опасных и осторожных животных. Шансы медведей на выживание сокращаются.
picpicpicpicpic
Для увеличения картинки щелкните мышкой по превью

Этот торрент недоступен для скачивания без регистрации, однако доступен по публичной magnet-ссылке (источники с публичных трекеров). Перед использованием ссылки прочтите, пожалуйста Пользовательское соглашение, а также как можно дольше оставайтесь на раздаче! Для того, чтобы скачать сам торрент-файл (который видит больше источников), а также для того, чтобы поблагодарить релизера, вам необходимо зарегистрироваться. Если регистрироваться лень - вы можете также попробовать скачать релиз по нашим партнерским ссылкам ниже.

[underverse.su].t71903.torrent
Трекер: Зарегистрирован   [ 02.11.2016 12:34 ]  

Статус: проверено (by ARI71 at 02.11.2016 12:37)
Поблагодарили: пока никто не поблагодарил...
Тип торрента: публичный - доступные источники с открытых трекеров: 
Размер: 2,34 GB (занимает 0,53 DVDR, для записи нужно 1 болванка DVDR/RW)
 
 


Последний раз редактировалось: ARI71 (02.11.2016 12:34), всего редактировалось 2 раз(а)

ARI71 Пол:Муж

23-Окт-2016 08:46

Приятного всем просмотра!

Голосуй за трекер!!



ARI71 Пол:Муж

26-Окт-2016 06:31

Добавлена заключительная 3-я серия. 03. Побережье / The Coast

Обновите торрент-файл!


    Обновление раздачи завершено!

Яндекс.Метрика powered by Sphinx


В Н И М А Н И Е
Сайт не распространяет и не хранит электронные версии произведений, а лишь бесплатно и без коммерческой выгоды (не требуя взамен платы,
SMS и т.д.) предоставляет доступ к создаваемому пользователями каталогу ссылок на торрент-файлы, которые содержат только списки хеш-сумм.
Убедительная просьба с жалобами обращаться напрямую к пользователю, разместившему торрент файл.

Вверх