Loading...
Error

Её звали Муму (Владимир Мирзоев) [2016 г., драма, SatRip]

Статистика раздачи
Размер:  1,37 GB   |    Зарегистрирован:  1 месяц 18 дней   |    Скачан:  16 раз

Полного источника не было: 7 часов

Сидов:  0  |  0 KB/s  ]   Личеров:  0  |  0 KB/s  ]

* - сиды/пиры с внешних источников

   
 
Автор Сообщение

makkol Пол:Муж

22-Окт-2016 22:10

Её звали Муму


Год выпуска: 2016
Жанр: драма
Производство: Россия [ООО «Фабула Филмс»]
Режиссер: Владимир Мирзоев
В ролях: Ирина Вилкова, Елена Коренева, Ефим Шифрин, Пётр Фёдоров, Ольга Лапшина, Ольга Лысак, Валерия Приходченко, Ирина Бутанаева, Евгений Буслаков, Игорь Воробьёв, Юрий Сысоев, Кирилл Леднев, Сергей Басок, Александр Яцентюк
Сюжет фильма:
Главная героиня за нехитрые материальные блага соглашается – без угрызений совести – стать приманкой для оппозиционеров; соблазнить, снять секс скрытой камерой и обнародовать запись. Политолог, молодой лидер либерального движения, ветеран постсоветских войн с подвижной психикой, эстрадный артист на излете славы, поддерживающий протестные акции, – в постели девочки, мечтающей о карьере телеведущей, бесстрастной, бессовестной, холодной внутри... Почему-то именно здесь они раскрываются по-настоящему. Героиня не боится своих жутковатых кураторов. Как ни странно, в ней ещё сохранилось что-то настоящее, что обычно называют «совестью». Это история об истинном и ложном, о пустоте и поиске любви, о страхах и о пределах человеческого терпения. О важности личного выбора, о надежде, которая вырастает из надежно спрятанного в самой глубине воспоминания о детской любви, мечтах.

Качество видео: SatRip

Продолжительность: 01:32:06
Формат: AVI
Видео: XviD, 720x400 (16:9), 25.000 fps, 1987 kbps
Аудио: русский, оригинал, MP3 2.0, 48 kHz, 128 kbps

Код:

Format                      : AVI
Format/Info                 : Audio Video Interleave
File size                   : 1.37 GiB
Duration                    : 1 h 32 min
Overall bit rate            : 2 125 kb/s
Writing application         : VirtualDubMod 1.5.10.3 | www.virtualdub-fr.org || (build 2550/release)
Writing library             : VirtualDubMod build 2550/release

Video
ID                          : 0
Format                      : MPEG-4 Visual
Format profile              : Advanced Simple@L5
Format settings, BVOP       : 2
Format settings, QPel       : No
Format settings, GMC        : No warppoints
Format settings, Matrix     : Default (H.263)
Codec ID                    : XVID
Codec ID/Hint               : XviD
Duration                    : 1 h 32 min
Bit rate                    : 1 987 kb/s
Width                       : 720 pixels
Height                      : 400 pixels
Display aspect ratio        : 16:9
Frame rate                  : 25.000 FPS
Color space                 : YUV
Chroma subsampling          : 4:2:0
Bit depth                   : 8 bits
Scan type                   : Progressive
Compression mode            : Lossy
Bits/(Pixel*Frame)          : 0.276
Stream size                 : 1.28 GiB (94%)
Writing library             : XviD 1.2.1 (UTC 2008-12-04)

Audio
ID                          : 1
Format                      : MPEG Audio
Format version              : Version 1
Format profile              : Layer 3
Mode                        : Joint stereo
Codec ID                    : 55
Codec ID/Hint               : MP3
Duration                    : 1 h 32 min
Bit rate mode               : Constant
Bit rate                    : 128 kb/s
Channel(s)                  : 2 channels
Sampling rate               : 48.0 kHz
Compression mode            : Lossy
Stream size                 : 84.3 MiB (6%)
Alignment                   : Aligned on interleaves
Interleave, duration        : 40  ms (1.00 video frame)
Interleave, preload duratio : 504  ms
Writing library             : LAME3.99r
Encoding settings           : -m j -V 4 -q 9 -lowpass 17 -b 128
picpicpicpicpic
Для увеличения картинки щелкните мышкой по превью

Этот торрент недоступен для скачивания без регистрации, однако доступен по публичной magnet-ссылке (источники с публичных трекеров). Перед использованием ссылки прочтите, пожалуйста Пользовательское соглашение, а также как можно дольше оставайтесь на раздаче! Для того, чтобы скачать сам торрент-файл (который видит больше источников), а также для того, чтобы поблагодарить релизера, вам необходимо зарегистрироваться. Если регистрироваться лень - вы можете также попробовать скачать релиз по нашим партнерским ссылкам ниже.

[underverse.su].t71453.torrent
Трекер: Зарегистрирован   [ 22.10.2016 22:10 ]  

Статус: проверено (by Паукан at 23.10.2016 05:38)
Поблагодарили: пока никто не поблагодарил...
Тип торрента: публичный - доступные источники с открытых трекеров: 
Размер: 1,37 GB (занимает 0,31 DVDR, для записи нужно 1 болванка DVDR/RW)
 
 

Яндекс.Метрика powered by Sphinx


В Н И М А Н И Е
Сайт не распространяет и не хранит электронные версии произведений, а лишь бесплатно и без коммерческой выгоды (не требуя взамен платы,
SMS и т.д.) предоставляет доступ к создаваемому пользователями каталогу ссылок на торрент-файлы, которые содержат только списки хеш-сумм.
Убедительная просьба с жалобами обращаться напрямую к пользователю, разместившему торрент файл.

Вверх