Loading...
Error

ЭкзоМарс: В поисках жизни / Exomars: The Hunt for Life (Франсуа Помес) [2016 г., документальный, научный, познавательный, космос, HDTVRip 720p] VO (Велес)

Статистика раздачи
Размер:  748 MB   |    Зарегистрирован:  1 месяц 19 дней   |    Скачан:  3 раза

Полного источника не было: 16 дней

Сидов:  0  |  0 KB/s  ]   Личеров:  0  |  0 KB/s  ]

* - сиды/пиры с внешних источников

   
 
Автор Сообщение

ARI71 Пол:Муж

22-Окт-2016 10:29

ЭкзоМарс: В поисках жизни / Exomars: The Hunt for Life


Год выпуска: 2016
Жанр: документальный, научный, познавательный, космос
Страна: США National Geographic Channel
Режиссер: Франсуа Помес
Текст читает: Олег Федоров
Сюжет фильма:
Зима 2015 года. Инженеры заканчивают работу над аппаратами первой миссии на Марс, которая будет запущена с космодрома Байконур в Казахстане. На борту космического аппарата орбитальный и спускаемый модули. Он преодолеет почти 500 000 000 км. пока не достигнет Красной планеты. Цель миссии - попытаться найти в атмосфере Марса следы живых существ, которые могут там обитать. Но одна ошибка может всё погубить. Как родилась идея этой миссии? Какие препятствия преодолели ученые? В этой документальной передаче мы узнаем подробности миссии 2016-2018 годов.
Качество видео: HDTVRip 720p

Продолжительность: 00:43:56
Формат: MKV
Видео: AVC (x264), 1280х720, 2185 kbps
Аудио: русский, одноголосый [профессиональный, Велес], AC3 2.0, 192.00 kbps

Рип от: NejnosTь

Код:

Общее
Уникальный идентификатор : 175607085308139663690093224606602250488 (0x841CB1C4786EC0F09E67D4B0AFC248F8)
Полное имя : D:\ЭкзоМарс В поисках жизни(Exomars The Hunt for Life) 2016 HDTVRip (720p).mkv
Формат : Matroska
Версия формата : Version 4 / Version 2
Размер файла : 748 Мбайт
Продолжительность : 43 м.
Общий поток : 2379 Кбит/сек
Дата кодирования : UTC 2016-10-21 09:38:39
Программа кодирования : mkvmerge v7.8.0 ('River Man') 32bit built on Apr 3 2015 12:11:22
Библиотека кодирования : libebml v1.3.1 + libmatroska v1.4.2

Видео
Идентификатор : 1
Формат : AVC
Формат/Информация : Advanced Video Codec
Профиль формата : High@L4.1
Параметр CABAC формата : Да
Параметр ReFrames формата : 5 кадров
Идентификатор кодека : V_MPEG4/ISO/AVC
Продолжительность : 43 м.
Битрейт : 2185 Кбит/сек
Ширина : 1280 пикселей
Высота : 720 пикселей
Соотношение сторон : 16:9
Режим частоты кадров : Постоянный
Частота кадров : 25,000 кадров/сек
Цветовое пространство : YUV
Субдискретизация насыщенности : 4:2:0
Битовая глубина : 8 бит
Тип развёртки : Прогрессивная
Бит/(Пиксели*Кадры) : 0.095
Размер потока : 687 Мбайт (92%)
Библиотека кодирования : x264 core 148 r2721 72d53ab
Настройки программы : cabac=1 / ref=5 / deblock=1:-3:-3 / analyse=0x3:0x133 / me=hex / subme=9 / psy=1 / psy_rd=1.00:0.00 / mixed_ref=1 / me_range=16 / chroma_me=1 / trellis=2 / 8x8dct=1 / cqm=0 / deadzone=21,11 / fast_pskip=0 / chroma_qp_offset=-2 / threads=6 / lookahead_threads=1 / sliced_threads=0 / nr=0 / decimate=1 / interlaced=0 / bluray_compat=0 / constrained_intra=0 / bframes=3 / b_pyramid=2 / b_adapt=1 / b_bias=0 / direct=3 / weightb=1 / open_gop=0 / weightp=2 / keyint=250 / keyint_min=25 / scenecut=40 / intra_refresh=0 / rc_lookahead=50 / rc=crf / mbtree=1 / crf=19.0 / qcomp=0.60 / qpmin=10 / qpmax=51 / qpstep=4 / ip_ratio=1.40 / aq=1:1.00
Default : Да
Forced : Нет
Цветовой диапазон : Limited
Основные цвета : BT.709
Характеристики трансфера : BT.709
Коэффициенты матрицы : BT.709

Аудио
Идентификатор : 2
Формат : AC-3
Формат/Информация : Audio Coding 3
Расширение режима : CM (complete main)
Параметр Endianness формата : Big
Идентификатор кодека : A_AC3
Продолжительность : 43 м.
Вид битрейта : Постоянный
Битрейт : 192 Кбит/сек
Каналы : 2 канала
Расположение каналов : Front: L R
Частота : 48,0 КГц
Частота кадров : 31,250 кадров/сек (1536 spf)
Метод сжатия : С потерями
Размер потока : 60,4 Мбайт (8%)
Язык : Russian
Default : Да
Forced : Нет
picpicpicpicpic
Для увеличения картинки щелкните мышкой по превью

Этот торрент недоступен для скачивания без регистрации, однако доступен по публичной magnet-ссылке (источники с публичных трекеров). Перед использованием ссылки прочтите, пожалуйста Пользовательское соглашение, а также как можно дольше оставайтесь на раздаче! Для того, чтобы скачать сам торрент-файл (который видит больше источников), а также для того, чтобы поблагодарить релизера, вам необходимо зарегистрироваться. Если регистрироваться лень - вы можете также попробовать скачать релиз по нашим партнерским ссылкам ниже.

[underverse.su].t71395.torrent
Трекер: Зарегистрирован   [ 22.10.2016 10:29 ]  

Статус: проверено (by ARI71 at 22.10.2016 10:32)
Поблагодарили: пока никто не поблагодарил...
Тип торрента: публичный - доступные источники с открытых трекеров: 
Размер: 748 MB (занимает 0,17 DVDR, для записи нужно 1 болванка DVDR/RW)
 
 
Похожие темы
Форум Тема Автор Торрент Отв. Посл. сооб.
National Geographic ЭкзоМарс: В поисках жизни / Exomars: The Hunt for Life (Франсуа Помес) [2016 г., документальный, научный, познавательный, космос, SatRip] VO (Велес) ARI71
0 | 0

1 | 378

4

20.10.2016 18:22

ARI71 Пол:Муж

22-Окт-2016 10:33

Приятного всем просмотра!

Голосуй за трекер!!




Яндекс.Метрика powered by Sphinx


В Н И М А Н И Е
Сайт не распространяет и не хранит электронные версии произведений, а лишь бесплатно и без коммерческой выгоды (не требуя взамен платы,
SMS и т.д.) предоставляет доступ к создаваемому пользователями каталогу ссылок на торрент-файлы, которые содержат только списки хеш-сумм.
Убедительная просьба с жалобами обращаться напрямую к пользователю, разместившему торрент файл.

Вверх