Loading...
Error

Саид и Карлсон (Вера Травкина, Алексей Яковлев) [2016 г., документальный, биография, кинематограф, HDTVRip]

Статистика раздачи
Размер:  712 MB   |    Зарегистрирован:  1 месяц 16 дней   |    Скачан:  0 раз

Полного источника не было: Никогда

Сидов:  0  |  0 KB/s  ]   Личеров:  0  |  0 KB/s  ]

* - сиды/пиры с внешних источников

   
 
Автор Сообщение

ARI71 Пол:Муж

22-Окт-2016 10:09

Саид и Карлсон


Год выпуска: 2016
Жанр: документальный, биография, кинематограф
Страна: Россия Первый канал
Режиссер: Вера Травкина, Алексей Яковлев
В ролях: Валентина Мишулина, Карина Мишулина, Александр Ширвиндт, Владимир Коренев
Сюжет фильма:
22 октября 2016 года Спартаку Мишулину исполнилось бы 90 лет. В память о себе он оставил удивительные роли: исполненный невероятного шарма Карлсон из телеспектакля Театра сатиры, обаятельный пан Директор из телевизионного кабачка "Тринадцать стульев", выразительно лапидарный Саид из "Белого солнца пустыни". Попробуйте произнести лишь одно слово - "Стреляли..." - и перед глазами тут же встаёт лицо человека, которого не спутать ни с кем другим. В нашем фильме мы расскажем о его удивительной судьбе, которая вобрала в себя невыдуманные трагедии и драмы, невостребованную любовь к матери, верность детской мечте, успех у публики, легенды и мистику, сопровождавшую актёра всю его жизнь. Как, например, "Чёрная дама". Впервые она явилась Спартаку, когда тот был подростком, тосковал о материнском тепле и участии и переполнявшие его эмоции решил излить на бумаге. Тогда-то из-за шкафа появилась Она и произнесла свое предсказание... Кто же была та "Дама в чёрном"? И что она предсказала?

Спарта́к Васи́льевич Мишу́лин (22 октября 1926 — 17 июля 2005) — советский и российский актёр театра и кино. Народный артист РСФСР (1981), Заслуженный деятель культуры Польши (1975). Лауреат премии имени И. Смоктуновского. Лауреат премии имени братьев Люмьер. Лауреат Государственной премии России (1998)
Качество видео: HDTVRip

Продолжительность: 00:49:54
Формат: AVI
Видео: XviD, 720x400, 1792 kbps
Аудио: русский, (оригинал), AC3 2.0, 192.00 kbps

Код:

Общее
Полное имя : D:\Said i Karlson.HDTVRip.GeneralFilm.avi
Формат : AVI
Формат/Информация : Audio Video Interleave
Размер файла : 712 Мбайт
Продолжительность : 49 м.
Общий поток : 1994 Кбит/сек
Программа кодирования : VirtualDubMod 1.5.10.3 (build 2550/release)
Библиотека кодирования : VirtualDubMod build 2550/release

Видео
Идентификатор : 0
Формат : MPEG-4 Visual
Профиль формата : Advanced Simple@L5
Параметр BVOP формата : 1
Параметр QPel формата : Нет
Параметр GMC формата : Без точки перехода
Параметр матрицы формата : Выборочная
Идентификатор кодека : XVID
Идентификатор кодека/Подсказка : XviD
Продолжительность : 49 м.
Битрейт : 1792 Кбит/сек
Ширина : 720 пикселей
Высота : 400 пикселей
Соотношение сторон : 16:9
Частота кадров : 25,000 кадров/сек
Цветовое пространство : YUV
Субдискретизация насыщенности : 4:2:0
Битовая глубина : 8 бит
Тип развёртки : Прогрессивная
Метод сжатия : С потерями
Бит/(Пиксели*Кадры) : 0.249
Размер потока : 640 Мбайт (90%)
Библиотека кодирования : XviD 73

Аудио
Идентификатор : 1
Формат : AC-3
Формат/Информация : Audio Coding 3
Расширение режима : CM (complete main)
Параметр Endianness формата : Big
Идентификатор кодека : 2000
Продолжительность : 49 м.
Вид битрейта : Постоянный
Битрейт : 192 Кбит/сек
Каналы : 2 канала
Расположение каналов : Front: L R
Частота : 48,0 КГц
Частота кадров : 31,250 кадров/сек (1536 spf)
Метод сжатия : С потерями
Размер потока : 68,5 Мбайт (10%)
Выравнивание : Разделение по промежуткам
Продолжительность промежутка : 40 мс. (1,00 видеокадр)
Время предзагрузки промежутка : 500 мс.
picpicpicpicpic
Для увеличения картинки щелкните мышкой по превью

Этот торрент недоступен для скачивания без регистрации, однако доступен по публичной magnet-ссылке (источники с публичных трекеров). Перед использованием ссылки прочтите, пожалуйста Пользовательское соглашение, а также как можно дольше оставайтесь на раздаче! Для того, чтобы скачать сам торрент-файл (который видит больше источников), а также для того, чтобы поблагодарить релизера, вам необходимо зарегистрироваться. Если регистрироваться лень - вы можете также попробовать скачать релиз по нашим партнерским ссылкам ниже.

[underverse.su].t71382.torrent
Трекер: Зарегистрирован   [ 22.10.2016 10:09 ]  

Статус: проверено (by ARI71 at 22.10.2016 10:11)
Поблагодарили: пока никто не поблагодарил...
Тип торрента: публичный - доступные источники с открытых трекеров: 
Размер: 712 MB (занимает 0,16 DVDR, для записи нужно 1 болванка DVDR/RW)
 
 

ARI71 Пол:Муж

22-Окт-2016 10:12

Приятного всем просмотра!

Голосуй за трекер!!




Яндекс.Метрика powered by Sphinx


В Н И М А Н И Е
Сайт не распространяет и не хранит электронные версии произведений, а лишь бесплатно и без коммерческой выгоды (не требуя взамен платы,
SMS и т.д.) предоставляет доступ к создаваемому пользователями каталогу ссылок на торрент-файлы, которые содержат только списки хеш-сумм.
Убедительная просьба с жалобами обращаться напрямую к пользователю, разместившему торрент файл.

Вверх