Loading...
Error

ЭкзоМарс: В поисках жизни / Exomars: The Hunt for Life (Франсуа Помес) [2016 г., документальный, научный, познавательный, космос, SatRip] VO (Велес)

Статистика раздачи
Размер:  627 MB   |    Зарегистрирован:  1 месяц 15 дней   |    Скачан:  4 раза

Полного источника не было: 1 месяц 10 дней

Сидов:  0  |  0 KB/s  ]   Личеров:  0  |  0 KB/s  ]

* - сиды/пиры с внешних источников

   
 
Автор Сообщение

ARI71 Пол:Муж

20-Окт-2016 18:18

ЭкзоМарс: В поисках жизни / Exomars: The Hunt for Life


Год выпуска: 2016
Жанр: документальный, научный, познавательный, космос
Страна: США National Geographic Channel
Режиссер: Франсуа Помес
Текст читает: Олег Федоров
Сюжет фильма:
Зима 2015 года. Инженеры заканчивают работу над аппаратами первой миссии на Марс, которая будет запущена с космодрома Байконур в Казахстане. На борту космического аппарата орбитальный и спускаемый модули. Он преодолеет почти 500 000 000 км. пока не достигнет Красной планеты. Цель миссии - попытаться найти в атмосфере Марса следы живых существ, которые могут там обитать. Но одна ошибка может всё погубить. Как родилась идея этой миссии? Какие препятствия преодолели ученые? В этой документальной передаче мы узнаем подробности миссии 2016-2018 годов.
Качество видео: SatRip

Продолжительность: 00:44:00
Формат: AVI
Видео: XviD, 704x400, 1794 kbps
Аудио: русский, одноголосый [профессиональный, Велес], AC3 2.0, 192.00 kbps

Автор рипа: skorpionN

Код:

Общее
Полное имя : D:\NG_Exomars_The Hunt for Life.avi
Формат : AVI
Формат/Информация : Audio Video Interleave
Размер файла : 627 Мбайт
Продолжительность : 43 м.
Общий поток : 1994 Кбит/сек
Программа кодирования : TMPGEnc Video Mastering Works 5 Version. 5.0.6.38
Библиотека кодирования : TMPGEnc Video Mastering Works 5 Version. 5.0.6.38

Видео
Идентификатор : 0
Формат : MPEG-4 Visual
Профиль формата : Advanced Simple@L5
Параметр BVOP формата : 2
Параметр QPel формата : Нет
Параметр GMC формата : Без точки перехода
Параметр матрицы формата : Default (H.263)
Режим смешивания : Сжатый битовый поток
Идентификатор кодека : XVID
Идентификатор кодека/Подсказка : XviD
Продолжительность : 43 м.
Битрейт : 1794 Кбит/сек
Ширина : 704 пикселя
Высота : 400 пикселей
Соотношение сторон : 16:9
Частота кадров : 25,000 кадров/сек
Цветовое пространство : YUV
Субдискретизация насыщенности : 4:2:0
Битовая глубина : 8 бит
Тип развёртки : Прогрессивная
Метод сжатия : С потерями
Бит/(Пиксели*Кадры) : 0.255
Размер потока : 565 Мбайт (90%)
Библиотека кодирования : XviD 73

Аудио
Идентификатор : 1
Формат : AC-3
Формат/Информация : Audio Coding 3
Расширение режима : CM (complete main)
Параметр Endianness формата : Big
Идентификатор кодека : 2000
Продолжительность : 43 м.
Вид битрейта : Постоянный
Битрейт : 192 Кбит/сек
Каналы : 2 канала
Расположение каналов : Front: L R
Частота : 48,0 КГц
Частота кадров : 31,250 кадров/сек (1536 spf)
Метод сжатия : С потерями
Размер потока : 60,4 Мбайт (10%)
Выравнивание : Соединение по промежуткам
Продолжительность промежутка : 240 мс. (6,00 видеокадров)
Время предзагрузки промежутка : 224 мс.
picpicpicpicpic
Для увеличения картинки щелкните мышкой по превью

Этот торрент недоступен для скачивания без регистрации, однако доступен по публичной magnet-ссылке (источники с публичных трекеров). Перед использованием ссылки прочтите, пожалуйста Пользовательское соглашение, а также как можно дольше оставайтесь на раздаче! Для того, чтобы скачать сам торрент-файл (который видит больше источников), а также для того, чтобы поблагодарить релизера, вам необходимо зарегистрироваться. Если регистрироваться лень - вы можете также попробовать скачать релиз по нашим партнерским ссылкам ниже.

[underverse.su].t71328.torrent
Трекер: Зарегистрирован   [ 20.10.2016 18:18 ]  

Статус: проверено (by ARI71 at 20.10.2016 18:22)
Поблагодарили: пока никто не поблагодарил...
Тип торрента: публичный - доступные источники с открытых трекеров: 
Размер: 627 MB (занимает 0,14 DVDR, для записи нужно 1 болванка DVDR/RW)
 
 
Похожие темы
Форум Тема Автор Торрент Отв. Посл. сооб.
National Geographic ЭкзоМарс: В поисках жизни / Exomars: The Hunt for Life (Франсуа Помес) [2016 г., документальный, научный, познавательный, космос, HDTVRip 720p] VO (Велес) ARI71
6 | 0

1 | 192

3

22.10.2016 10:33

ARI71 Пол:Муж

20-Окт-2016 18:22

Приятного всем просмотра!

Голосуй за трекер!!




Яндекс.Метрика powered by Sphinx


В Н И М А Н И Е
Сайт не распространяет и не хранит электронные версии произведений, а лишь бесплатно и без коммерческой выгоды (не требуя взамен платы,
SMS и т.д.) предоставляет доступ к создаваемому пользователями каталогу ссылок на торрент-файлы, которые содержат только списки хеш-сумм.
Убедительная просьба с жалобами обращаться напрямую к пользователю, разместившему торрент файл.

Вверх