Loading...
Error

Проклятие рода Бхутто. Фильм Леонида Млечина (Лиана Микава) [2008 г., документальный, биография, история, политика, SatRip]

Статистика раздачи
Размер:  254 MB   |    Зарегистрирован:  1 месяц 16 дней   |    Скачан:  0 раз

Полного источника не было: Никогда

Сидов:  0  |  0 KB/s  ]   Личеров:  0  |  0 KB/s  ]

* - сиды/пиры с внешних источников

   
 
Автор Сообщение

ARI71 Пол:Муж

19-Окт-2016 14:52

Проклятие рода Бхутто. Фильм Леонида Млечина


Год выпуска: 2008
Жанр: документальный, биография, история, политика
Страна: Россия "ТВ-Центр"
Режиссер: Лиана Микава
Автор и ведущий: Леонид Млечин
Сюжет фильма:
Женщины, которые всерьез рискуют заняться большой политикой, производят сильное впечатление. Особенно на Востоке, особенно когда речь идет о красивой женщине и многодетной матери.
Она дважды завоевывала власть, и дважды военные лишали ее власти. Но она верила в свою миссию - с той минуты, как повесили ее отца, и до ее собственной смерти от рук убийцы-смертника.
В фильме Леонида Млечина" история жизни и смерти Беназир Бхутто, которая должна была в третий раз возглавить правительство Пакистана.

Бенази́р Бху́тто (21 июня 1953, Карачи, Пакистан — 27 декабря 2007, Равалпинди, Пакистан) — премьер-министр Исламской республики Пакистан в 1988—1990 и 1993—1996 годах, первая в новейшей истории женщина — глава правительства в стране с преимущественно мусульманским населением.
Качество видео: SatRip

Продолжительность: 00:39:00
Формат: AVI
Видео: XviD, 480x384, 768 kbps
Аудио: русский, (оригинал), MP3 2.0, 128.00 kbps

Код:

Общее
Полное имя : D:\Бхутто_Бхутто_xvid.avi
Формат : AVI
Формат/Информация : Audio Video Interleave
Размер файла : 254 Мбайт
Продолжительность : 39 м.
Общий поток : 909 Кбит/сек
Программа кодирования : Lavf56.36.100

Видео
Идентификатор : 0
Формат : xvid
Идентификатор кодека : xvid
Продолжительность : 39 м.
Битрейт : 768 Кбит/сек
Ширина : 480 пикселей
Высота : 384 пикселя
Соотношение сторон : 5:4
Частота кадров : 25,000 кадров/сек
Тип развёртки : Прогрессивная
Бит/(Пиксели*Кадры) : 0.167
Размер потока : 214 Мбайт (84%)

Аудио
Идентификатор : 1
Формат : MPEG Audio
Версия формата : Version 1
Профиль формата : Layer 3
Режим : Joint stereo
Расширение режима : MS Stereo
Идентификатор кодека : 55
Идентификатор кодека/Подсказка : MP3
Продолжительность : 39 м.
Вид битрейта : Постоянный
Битрейт : 128 Кбит/сек
Каналы : 2 канала
Частота : 48,0 КГц
Метод сжатия : С потерями
Размер потока : 35,7 Мбайт (14%)
Выравнивание : Соединение по промежуткам
Продолжительность промежутка : 24 мс. (0,60 видеокадр)
picpicpicpicpic
Для увеличения картинки щелкните мышкой по превью

Этот торрент недоступен для скачивания без регистрации, однако доступен по публичной magnet-ссылке (источники с публичных трекеров). Перед использованием ссылки прочтите, пожалуйста Пользовательское соглашение, а также как можно дольше оставайтесь на раздаче! Для того, чтобы скачать сам торрент-файл (который видит больше источников), а также для того, чтобы поблагодарить релизера, вам необходимо зарегистрироваться. Если регистрироваться лень - вы можете также попробовать скачать релиз по нашим партнерским ссылкам ниже.

[underverse.su].t71289.torrent
Трекер: Зарегистрирован   [ 19.10.2016 14:52 ]  

Статус: проверено (by ARI71 at 19.10.2016 14:53)
Поблагодарили: пока никто не поблагодарил...
Тип торрента: публичный - доступные источники с открытых трекеров: 
Размер: 254 MB (занимает 0,06 DVDR, для записи нужно 1 болванка DVDR/RW)
 
 
Похожие темы
Форум Тема Автор Торрент Отв. Посл. сооб.
Зарубежное кино [DVDRip, Low-Res HDRip, и т.д.] Проклятие моей матери / The Guilt Trip (Энн Флетчер) [2012 г., комедия, HDRip] DVO (Петя и Ко) 90ytr90
1 | 0

0 | 722

16

28.04.2013 18:01

Зарубежное кино [DVDRip, Low-Res HDRip, и т.д.] Проклятие моей матери / The Guilt Trip (Энн Флетчер / Anne Fletcher) [2012 г., комедия, HDRip] MVO 90ytr90
10 | 0

0 | 1383

54

08.08.2013 17:50

Зарубежное кино [DVDRip, Low-Res HDRip, и т.д.] Проклятие Чаки / Curse of Chucky (Дон Манчини / Don Mancini) [2013 г., ужасы, триллер, WEB-DLRip] [UNRATED] VO (Xixidok) + Original 90ytr90
0 | 0

0 | 1176

4

28.09.2013 16:31

Зарубежное кино [DVDRip, Low-Res HDRip, и т.д.] Проклятие Чаки / Curse of Chucky (Дон Манчини) [2013 г., триллер, ужасы, HDRip] [UNRATED] MVO (BaibaKo) 90ytr90
5 | 0

0 | 1267

23

03.10.2013 14:46

Зарубежное кино [DVDRip, Low-Res HDRip, и т.д.] Проклятие Чаки / Curse of Chucky (Дон Манчини / Don Mancini) [2013 г., триллер, ужасы, BDRip] [UNRATED] Dub 90ytr90
33 | 0

0 | 791

3

10.06.2014 05:56

Зарубежное кино [DVDRip, Low-Res HDRip, и т.д.] Проклятие Аннабель / Annabelle (Джон Р. Леонетти / John R. Leonetti) [2014 г., ужасы, BDRip] Dub 90ytr90
1 | 0

0 | 318

4

04.02.2015 06:08

Зарубежное кино [DVDRip, Low-Res HDRip, и т.д.] Проклятие Аннабель / Annabelle (Джон Р. Леонетти / John R. Leonetti) [2014 г., ужасы, HDRip] Dub + Ukr + Original (Eng) 90ytr90
24 | 2

0 | 316

4

04.02.2015 17:44

Зарубежное кино [DVDRip, Low-Res HDRip, и т.д.] Проклятие Аннабель / Annabelle (Джон Р. Леонетти / John R. Leonetti) [2014 г., ужасы, BDRip-AVC] Dub + Original (Eng) + Subs 90ytr90
21 | 0

0 | 322

9

04.02.2015 20:03

Зарубежное кино [DVDRip, Low-Res HDRip, и т.д.] Проклятие Аннабель / Annabelle (Джон Р. Леонетти / John R. Leonetti) [2014 г., ужасы, HDRip] Dub 90ytr90
14 | 0

0 | 445

2

17.02.2015 05:56

Зарубежное кино [DVDRip, Low-Res HDRip, и т.д.] Проклятие ведьминого дерева / Curse of the Witching Tree (Джеймс Кроу) [2015 г., ужасы, DVDRip] DVO makkol
4 | 0

0 | 873

28

28.02.2016 23:37


Яндекс.Метрика powered by Sphinx


В Н И М А Н И Е
Сайт не распространяет и не хранит электронные версии произведений, а лишь бесплатно и без коммерческой выгоды (не требуя взамен платы,
SMS и т.д.) предоставляет доступ к создаваемому пользователями каталогу ссылок на торрент-файлы, которые содержат только списки хеш-сумм.
Убедительная просьба с жалобами обращаться напрямую к пользователю, разместившему торрент файл.

Вверх