Loading...
Error

Такса / Wiener-Dog (Тодд Солондз) [2016 г., комедия, HDRip] MVO

Статистика раздачи
Размер:  1,37 GB   |    Зарегистрирован:  1 месяц 21 день   |    Скачан:  11 раз

Полного источника не было: 4 часа

Сидов:  0  |  0 KB/s  ]   Личеров:  0  |  0 KB/s  ]

* - сиды/пиры с внешних источников

   
 
Автор Сообщение

makkol Пол:Муж

19-Окт-2016 11:38

Такса / Wiener-Dog


Год выпуска: 2016
Жанр: комедия
Производство: США [Annapurna Pictures, Killer Films]
Режиссер: Тодд Солондз
В ролях: Грета Гервиг, Дэнни ДеВито, Заша Мэмет, Эллен Бёрстин, Киран Калкин, Китон Найджел Кук, Трэйси Леттс, Жюли Дельпи, Ригоберто Гарсиа
Сюжет фильма:
Трогательная, вместе с тем наполненная сарказмом история путешествия таксы от хозяина к хозяину. Четыре человеческих судьбы связаны одним питомцем: собаке приходится быть послушной няней, психологом, а очередной хозяин вообще крадёт таксу и пускается с ней в авантюру. В итоге, невинный пёс становится свидетелем полного спектра человеческих переживаний. Удастся ли таксе выжить в этом круговороте событий..?

  • Мировая премьера: 22 января 2016
  • Российская премьера: 22 сентября 2016


Качество видео: HDRip

Продолжительность: 01:28:03
Формат: AVI
Видео: XviD, 720x384 (1.85:1), 23.976 fps, 2020 kbps
Аудио: русский, профессиональный многоголосый закадровый (официальный звук), AC3 2.0, 48 kHz, 192 kbps

Код:

Формат                                   : AVI
Формат/Информация                        : Audio Video Interleave
Размер файла                             : 1,37 Гбайт
Продолжительность                        : 1 ч. 28 м.
Общий поток                              : 2221 Кбит/сек
Программа кодирования                    : VirtualDubMod 1.5.10.2 (build 2540/release)
Библиотека кодирования                   : VirtualDubMod build 2540/release

Видео
Идентификатор                            : 0
Формат                                   : MPEG-4 Visual
Профиль формата                          : Advanced Simple@L5
Параметр BVOP формата                    : 2
Параметр QPel формата                    : Нет
Параметр GMC формата                     : Без точки перехода
Параметр матрицы формата                 : Default (MPEG)
Идентификатор кодека                     : XVID
Идентификатор кодека/Подсказка           : XviD
Продолжительность                        : 1 ч. 28 м.
Битрейт                                  : 2020 Кбит/сек
Ширина                                   : 720 пикселей
Высота                                   : 384 пикселя
Соотношение сторон                       : 1,85:1
Частота кадров                           : 23,976 кадра/сек
Цветовое пространство                    : YUV
Субдискретизация насыщенности            : 4:2:0
Битовая глубина                          : 8 бит
Тип развёртки                            : Прогрессивная
Метод сжатия                             : С потерями
Бит/(Пиксели*Кадры)                      : 0.305
Размер потока                            : 1,24 Гбайт (91%)
Библиотека кодирования                   : XviD 1.2.1 (UTC 2008-12-04)

Аудио
Идентификатор                            : 1
Формат                                   : AC-3
Формат/Информация                        : Audio Coding 3
Расширение режима                        : CM (complete main)
Параметр Endianness формата              : Big
Идентификатор кодека                     : 2000
Продолжительность                        : 1 ч. 27 м.
Вид битрейта                             : Постоянный
Битрейт                                  : 192 Кбит/сек
Каналы                                   : 2 канала
Расположение каналов                     : Front: L R
Частота                                  : 48,0 КГц
Битовая глубина                          : 16 бит
Метод сжатия                             : С потерями
Размер потока                            : 121 Мбайт (9%)
Выравнивание                             : Разделение по промежуткам
Продолжительность промежутка             : 42  мс. (1,00 видеокадр)
Время предзагрузки промежутка            : 500  мс.


picpicpicpicpic
Для увеличения картинки щелкните мышкой по превью

Этот торрент недоступен для скачивания без регистрации, однако доступен по публичной magnet-ссылке (источники с публичных трекеров). Перед использованием ссылки прочтите, пожалуйста Пользовательское соглашение, а также как можно дольше оставайтесь на раздаче! Для того, чтобы скачать сам торрент-файл (который видит больше источников), а также для того, чтобы поблагодарить релизера, вам необходимо зарегистрироваться. Если регистрироваться лень - вы можете также попробовать скачать релиз по нашим партнерским ссылкам ниже.

[underverse.su].t71287.torrent
Трекер: Зарегистрирован   [ 19.10.2016 11:38 ]  

Статус: проверено (by Паукан at 19.10.2016 14:51)
Поблагодарили: пока никто не поблагодарил...
Тип торрента: публичный - доступные источники с открытых трекеров: 
Размер: 1,37 GB (занимает 0,31 DVDR, для записи нужно 1 болванка DVDR/RW)
 
 
Похожие темы
Форум Тема Автор Торрент Отв. Посл. сооб.
T Зарубежное кино [DVDRip, Low-Res HDRip, и т.д.] Такса / Wiener-Dog (Тодд Солондз / Todd Solondz) [2016 г., комедия, HDRip] MVO (Recent Films) 90ytr90
45 | 0

0 | 427

14

30.08.2016 12:25

Зарубежное кино [HDDVDRip / BDRip / WEB-DL / HDTV 1080/720р] Такса / Wiener-Dog (Тодд Солондз) [2016 г., комедия, BDRip 720p] MVO + Original makkol
27 | 3

0 | 257

3

19.10.2016 11:50

T Зарубежное кино [HDDVDRip / BDRip / WEB-DL / HDTV 1080/720р] Такса / Wiener-Dog (Тодд Солондз / Todd Solondz) [2016 г., комедия, BDRip 720p] MVO (Recent Films) + Original (Eng) 90ytr90
37 | 0

0 | 418

3

31.08.2016 08:26


Яндекс.Метрика powered by Sphinx


В Н И М А Н И Е
Сайт не распространяет и не хранит электронные версии произведений, а лишь бесплатно и без коммерческой выгоды (не требуя взамен платы,
SMS и т.д.) предоставляет доступ к создаваемому пользователями каталогу ссылок на торрент-файлы, которые содержат только списки хеш-сумм.
Убедительная просьба с жалобами обращаться напрямую к пользователю, разместившему торрент файл.

Вверх