Loading...
Error

Как думает наш мозг / Voir le cerveau penser (Гийом Жюпен) [2014 г., документальный, научно-популярный, SatRip] DVO (СВ-Дубль)

Статистика раздачи
Размер:  755 MB   |    Зарегистрирован:  1 месяц 17 дней   |    Скачан:  4 раза

Полного источника не было: 2 часа 9 минут

Сидов:  0  |  0 KB/s  ]   Личеров:  0  |  0 KB/s  ]

* - сиды/пиры с внешних источников

   
 
Автор Сообщение

ARI71 Пол:Муж

19-Окт-2016 10:45

Как думает наш мозг / Voir le cerveau penser


Год выпуска: 2014
Жанр: документальный, научно-популярный
Страна: Франция AB Productions - Docland Yard
Режиссер: Гийом Жюпен
Сюжет фильма:
Человеческий мозг хранит в себе множество тайн. Учёные и программисты стремятся максимально исследовать его внутреннее устройство и принципы работы. Их цель - научиться диагностировать и лечить такие поражения головного мозга, как болезнь Альцгеймера, болезнь Паркинсона и шизофрения. А также изучить особенности работы мозга, открыть новые возможности улучшить наши интеллектуальные способности. И наконец, попытаться проникнуть туда, где зарождаются наши мысли.
Качество видео: SatRip

Продолжительность: 00:52:48
Формат: AVI
Видео: XviD, 704x400, 1798 kbps
Аудио: русский, двухголосый закадровый [профессиональный, СВ-Дубль], AC3 2.0, 192.00 kbps

Автор рипа: skorpionN

Код:

Общее
Полное имя : D:\Voir le cerveau penser.avi
Формат : AVI
Формат/Информация : Audio Video Interleave
Размер файла : 755 Мбайт
Продолжительность : 52 м.
Общий поток : 1998 Кбит/сек
Программа кодирования : TMPGEnc Video Mastering Works 5 Version. 5.0.6.38
Библиотека кодирования : TMPGEnc Video Mastering Works 5 Version. 5.0.6.38

Видео
Идентификатор : 0
Формат : MPEG-4 Visual
Профиль формата : Advanced Simple@L5
Параметр BVOP формата : 2
Параметр QPel формата : Нет
Параметр GMC формата : Без точки перехода
Параметр матрицы формата : Default (H.263)
Режим смешивания : Сжатый битовый поток
Идентификатор кодека : XVID
Идентификатор кодека/Подсказка : XviD
Продолжительность : 52 м.
Битрейт : 1798 Кбит/сек
Ширина : 704 пикселя
Высота : 400 пикселей
Соотношение сторон : 16:9
Частота кадров : 25,000 кадров/сек
Цветовое пространство : YUV
Субдискретизация насыщенности : 4:2:0
Битовая глубина : 8 бит
Тип развёртки : Прогрессивная
Метод сжатия : С потерями
Бит/(Пиксели*Кадры) : 0.255
Размер потока : 679 Мбайт (90%)
Библиотека кодирования : XviD 73

Аудио
Идентификатор : 1
Формат : AC-3
Формат/Информация : Audio Coding 3
Расширение режима : CM (complete main)
Параметр Endianness формата : Big
Идентификатор кодека : 2000
Продолжительность : 52 м.
Вид битрейта : Постоянный
Битрейт : 192 Кбит/сек
Каналы : 2 канала
Расположение каналов : Front: L R
Частота : 48,0 КГц
Частота кадров : 31,250 кадров/сек (1536 spf)
Метод сжатия : С потерями
Размер потока : 72,5 Мбайт (10%)
Выравнивание : Соединение по промежуткам
Продолжительность промежутка : 240 мс. (6,00 видеокадров)
Время предзагрузки промежутка : 224 мс.
picpicpicpicpic
Для увеличения картинки щелкните мышкой по превью

Этот торрент недоступен для скачивания без регистрации, однако доступен по публичной magnet-ссылке (источники с публичных трекеров). Перед использованием ссылки прочтите, пожалуйста Пользовательское соглашение, а также как можно дольше оставайтесь на раздаче! Для того, чтобы скачать сам торрент-файл (который видит больше источников), а также для того, чтобы поблагодарить релизера, вам необходимо зарегистрироваться. Если регистрироваться лень - вы можете также попробовать скачать релиз по нашим партнерским ссылкам ниже.

[underverse.su].t71284.torrent
Трекер: Зарегистрирован   [ 19.10.2016 10:45 ]  

Статус: проверено (by ARI71 at 19.10.2016 10:48)
Поблагодарили: пока никто не поблагодарил...
Тип торрента: публичный - доступные источники с открытых трекеров: 
Размер: 755 MB (занимает 0,17 DVDR, для записи нужно 1 болванка DVDR/RW)
 
 

ARI71 Пол:Муж

19-Окт-2016 10:46

Приятного всем просмотра!

Голосуй за трекер!!




Яндекс.Метрика powered by Sphinx


В Н И М А Н И Е
Сайт не распространяет и не хранит электронные версии произведений, а лишь бесплатно и без коммерческой выгоды (не требуя взамен платы,
SMS и т.д.) предоставляет доступ к создаваемому пользователями каталогу ссылок на торрент-файлы, которые содержат только списки хеш-сумм.
Убедительная просьба с жалобами обращаться напрямую к пользователю, разместившему торрент файл.

Вверх