Loading...
Error

Очень плохие мамочки / Bad Moms (Джон Лукас, Скотт Мур) [2016 г., комедия, HDRip] Dub (звук с TS)

Статистика раздачи
Размер:  1,46 GB   |    Зарегистрирован:  1 месяц 21 день   |    Скачан:  18 раз

Полного источника не было: 13 часов

Сидов:  0  |  0 KB/s  ]   Личеров:  0  |  0 KB/s  ]

* - сиды/пиры с внешних источников

   
 
Автор Сообщение

makkol Пол:Муж

18-Окт-2016 22:00

Очень плохие мамочки / Bad Moms


Год выпуска: 2016
Жанр: комедия
Производство: США [Block Entertainment]
Режиссер: Джон Лукас, Скотт Мур
В ролях: Мила Кунис, Кэтрин Хан, Кристен Белл, Кристина Эпплгейт, Джада Пинкетт Смит, Энни Мумоло, Уна Лоуренс, Эмджей Энтони, Дэвид Уолтон, Кларк Дьюк
Сюжет фильма:
Идеальная мать, прекрасная жена, хорошая домохозяйка с успешной карьерой… Но стоит немного расслабиться, как тебе сразу напоминают о твоих обязанностях. Почему только мужчины имеют право развлекаться? Сколько же можно это терпеть?! Пора команде отчаянных мамочек пуститься во все тяжкие.

  • Мировая премьера: 28 июля 2016
  • Российская премьера: 1 сентября 2016


Качество видео: HDRip

Продолжительность: 01:40:55
Формат: AVI
Видео: XviD, 720x304 (2.35:1), 23.976 fps, 1671 kbps
Аудио: русский, дублированный (звук с TS), AC3 2.0, 48 kHz, 384 kbps

Код:

Формат                                   : AVI
Формат/Информация                        : Audio Video Interleave
Размер файла                             : 1,45 Гбайт
Продолжительность                        : 1 ч. 40 м.
Общий поток                              : 2064 Кбит/сек
Программа кодирования                    : VirtualDubMod 1.5.10.2 (build 2540/release)
Библиотека кодирования                   : VirtualDub build 35390/release

Видео
Идентификатор                            : 0
Формат                                   : MPEG-4 Visual
Профиль формата                          : Advanced Simple@L5
Параметр BVOP формата                    : 2
Параметр QPel формата                    : Нет
Параметр GMC формата                     : Без точки перехода
Параметр матрицы формата                 : Выборочная
Идентификатор кодека                     : XVID
Идентификатор кодека/Подсказка           : XviD
Продолжительность                        : 1 ч. 40 м.
Битрейт                                  : 1671 Кбит/сек
Ширина                                   : 720 пикселей
Высота                                   : 304 пикселя
Соотношение сторон                       : 2,35:1
Частота кадров                           : 23,976 кадра/сек
Цветовое пространство                    : YUV
Субдискретизация насыщенности            : 4:2:0
Битовая глубина                          : 8 бит
Тип развёртки                            : Прогрессивная
Метод сжатия                             : С потерями
Бит/(Пиксели*Кадры)                      : 0.318
Размер потока                            : 1,17 Гбайт (81%)
Библиотека кодирования                   : XviD 1.2.1 (UTC 2008-12-04)

Аудио
Идентификатор                            : 1
Формат                                   : AC-3
Формат/Информация                        : Audio Coding 3
Расширение режима                        : CM (complete main)
Параметр Endianness формата              : Big
Идентификатор кодека                     : 2000
Продолжительность                        : 1 ч. 40 м.
Вид битрейта                             : Постоянный
Битрейт                                  : 384 Кбит/сек
Каналы                                   : 2 канала
Расположение каналов                     : Front: L R
Частота                                  : 48,0 КГц
Битовая глубина                          : 16 бит
Метод сжатия                             : С потерями
Задержка видео                           : 8 мс.
Размер потока                            : 276 Мбайт (19%)
Выравнивание                             : Разделение по промежуткам
Продолжительность промежутка             : 42  мс. (1,00 видеокадр)
Время предзагрузки промежутка            : 500  мс.


picpicpicpicpic
Для увеличения картинки щелкните мышкой по превью

Этот торрент недоступен для скачивания без регистрации, однако доступен по публичной magnet-ссылке (источники с публичных трекеров). Перед использованием ссылки прочтите, пожалуйста Пользовательское соглашение, а также как можно дольше оставайтесь на раздаче! Для того, чтобы скачать сам торрент-файл (который видит больше источников), а также для того, чтобы поблагодарить релизера, вам необходимо зарегистрироваться. Если регистрироваться лень - вы можете также попробовать скачать релиз по нашим партнерским ссылкам ниже.

[underverse.su].t71274.torrent
Трекер: Зарегистрирован   [ 18.10.2016 22:00 ]  

Статус: поглощено (by 90ytr90 at 27.10.2016 15:38)
Поблагодарили: пока никто не поблагодарил...
Тип торрента: публичный - доступные источники с открытых трекеров: 
Размер: 1,46 GB (занимает 1/3 DVDR, для записи нужно 1 болванка DVDR/RW)
 
 
Похожие темы
Форум Тема Автор Торрент Отв. Посл. сооб.
T Зарубежное кино [DVDRip, Low-Res HDRip, и т.д.] Очень плохие мамочки / Bad Moms (Джон Лукас / Jon Lucas, Скотт Мур / Scott Moore) [2016 г., комедия, BDRip] Dub (iTunes) + Original (Eng) + Sub (Eng) 90ytr90
171 | 8

0 | 355

5

28.11.2016 18:57

Зарубежное кино [DVDRip, Low-Res HDRip, и т.д.] Очень плохая училка / Bad Teacher (Джейк Кэздан) [2011 г., комедия, DVDRip] maddd
0 | 0

1 | 1772

22

07.09.2011 19:50

Зарубежное кино [DVDRip, Low-Res HDRip, и т.д.] Очень плохая училка / Bad Teacher (Джейк Кэздан) [2011 г., комедия, DVDRip-AVC] Indostan
0 | 0

6 | 1709

34

05.10.2011 07:49

Зарубежное кино [DVDRip, Low-Res HDRip, и т.д.] Очень плохие парни / Big Bad Wolves (Аарон Кешалес, Навот Папушадо) [2013 г., триллер, криминал, HDRip-АVC] MVO 90ytr90
1 | 0

0 | 1725

9

05.05.2014 18:19

Зарубежное кино [DVDRip, Low-Res HDRip, и т.д.] Очень плохие парни / Big Bad Wolves (Аарон Кешалес, Навот Папушадо) [2013 г., триллер, комедия, криминал, HDRip] MVO + Original (Heb) 90ytr90
34 | 0

0 | 2249

4

06.05.2014 18:09

Зарубежное кино [DVDRip, Low-Res HDRip, и т.д.] Очень плохие парни / Big Bad Wolves (Аарон Кешалес, Навот Папушадо) [2013 г., триллер, комедия, криминал, HDRip] MVO 90ytr90
0 | 0

0 | 2411

20

06.05.2014 18:16

T Зарубежное кино [DVDRip, Low-Res HDRip, и т.д.] Очень плохие мамочки / Bad Moms (Джон Лукас / Jon Lucas, Скотт Мур / Scott Moore) [2016 г., комедия, BDRip-AVC] Dub (iTunes) + Original (Eng) + Sub (Eng) 90ytr90
294 | 4

0 | 597

14

27.10.2016 16:53

T Зарубежное кино [DVDRip, Low-Res HDRip, и т.д.] Очень плохие мамочки / Bad Moms (Джон Лукас / Jon Lucas, Скотт Мур / Scott Moore) [2016 г., комедия, BDRip] Dub (iTunes) 90ytr90
194 | 7

0 | 579

8

27.10.2016 15:55

T Зарубежное кино [DVDRip, Low-Res HDRip, и т.д.] Очень плохие мамочки / Bad Moms (Джон Лукас / Jon Lucas, Скотт Мур / Scott Moore) [2016 г., комедия, BDRip-AVC] Dub (iTunes) 90ytr90
115 | 7

0 | 543

10

27.10.2016 15:40

T Зарубежное кино [DVDRip, Low-Res HDRip, и т.д.] Очень плохие мамочки / Bad Moms (Джон Лукас, Скотт Мур) [2016 г., комедия, HDRip] Dub (iTunes) makkol
1644 | 47

0 | 536

24

27.10.2016 09:09

27-Окт-2016 15:39

Топик был перенесен из форума Зарубежное кино [DVDRip, Low-Res HDRip, и т.д.] в форум Для поглощенных раздач

Причина переноса: http://underverse.su/viewtopic.php?t=70033
90ytr90
 

Яндекс.Метрика powered by Sphinx


В Н И М А Н И Е
Сайт не распространяет и не хранит электронные версии произведений, а лишь бесплатно и без коммерческой выгоды (не требуя взамен платы,
SMS и т.д.) предоставляет доступ к создаваемому пользователями каталогу ссылок на торрент-файлы, которые содержат только списки хеш-сумм.
Убедительная просьба с жалобами обращаться напрямую к пользователю, разместившему торрент файл.

Вверх