Loading...
Error

Молодость по страховке / Wild Oats (Энди Теннант) [2016 г., драма, комедия, приключения, WEB-DLRip] Dub (iTunes)

Статистика раздачи
Размер:  1,37 GB   |    Зарегистрирован:  1 месяц 15 дней   |    Скачан:  15 раз

Полного источника не было: 3 часа

Сидов:  0  |  0 KB/s  ]   Личеров:  0  |  0 KB/s  ]

* - сиды/пиры с внешних источников

   
 
Автор Сообщение

makkol Пол:Муж

18-Окт-2016 14:01

Молодость по страховке / Wild Oats


Год выпуска: 2016
Жанр: драма, комедия, приключения
Страна: США [Alliance Cinema, Defiant Pictures]
Режиссер: Энди Теннант
В ролях: Джессика Лэнг, Деми Мур, Ширли МакЛейн, Билли Коннолли, Джадд Хёрш, Мэтт Уолш, Ребекка Да Коста, Ховард Хессеман, Джей Хейден
Сюжет фильма:
Эва по ошибке получает чек от страховой компании на 5 миллионов, вместо 50 тысяч долларов. Поддавшись уговорам своей лихой подруги, она обналичивает всю сумму, и подруги уходят в отрыв: рейс на Канары первым классом, президентский люкс, дерзкие знакомства, игра в казино — словом, всё шло, как по маслу, пока не случились… Преследование страхового агента, похищение подруг мошенниками, потеря денег, логово самого отъявленного преступника, угроза тюрьмы и многое другое! Такого девичника мы ещё не видели...

  • Мировая премьера: 22 августа 2016
  • Российская премьера: 22 сентября 2016


Качество видео: WEB-DLRip

Продолжительность: 01:27:39
Формат: AVI
Видео: XviD, 720x304 (2.35:1), 25.000 fps, 1839 kbps
Аудио: русский, дублированный (iTunes), AC3 5.1, 48 kHz, 384 kbps

Код:

Формат                                   : AVI
Формат/Информация                        : Audio Video Interleave
Размер файла                             : 1,37 Гбайт
Продолжительность                        : 1 ч. 27 м.
Общий поток                              : 2233 Кбит/сек
Программа кодирования                    : VirtualDubMod 1.5.10.2 (build 2540/release)
Библиотека кодирования                   : VirtualDubMod build 2540/release

Видео
Идентификатор                            : 0
Формат                                   : MPEG-4 Visual
Профиль формата                          : Advanced Simple@L5
Параметр BVOP формата                    : 2
Параметр QPel формата                    : Нет
Параметр GMC формата                     : Без точки перехода
Параметр матрицы формата                 : Default (MPEG)
Идентификатор кодека                     : XVID
Идентификатор кодека/Подсказка           : XviD
Продолжительность                        : 1 ч. 27 м.
Битрейт                                  : 1839 Кбит/сек
Ширина                                   : 720 пикселей
Высота                                   : 304 пикселя
Соотношение сторон                       : 2,35:1
Частота кадров                           : 25,000 кадров/сек
Цветовое пространство                    : YUV
Субдискретизация насыщенности            : 4:2:0
Битовая глубина                          : 8 бит
Тип развёртки                            : Прогрессивная
Метод сжатия                             : С потерями
Бит/(Пиксели*Кадры)                      : 0.336
Размер потока                            : 1,13 Гбайт (82%)
Библиотека кодирования                   : XviD 1.2.1 (UTC 2008-12-04)

Аудио
Идентификатор                            : 1
Формат                                   : AC-3
Формат/Информация                        : Audio Coding 3
Расширение режима                        : CM (complete main)
Параметр Endianness формата              : Big
Идентификатор кодека                     : 2000
Продолжительность                        : 1 ч. 27 м.
Вид битрейта                             : Постоянный
Битрейт                                  : 384 Кбит/сек
Каналы                                   : 6 каналов
Расположение каналов                     : Front: L C R, Side: L R, LFE
Частота                                  : 48,0 КГц
Частота кадров                           : 31,250 кадров/сек (1536 spf)
Метод сжатия                             : С потерями
Размер потока                            : 241 Мбайт (17%)
Выравнивание                             : Разделение по промежуткам
Продолжительность промежутка             : 40  мс. (1,00 видеокадр)
Время предзагрузки промежутка            : 500  мс.
picpicpicpicpic
Для увеличения картинки щелкните мышкой по превью

Этот торрент недоступен для скачивания без регистрации, однако доступен по публичной magnet-ссылке (источники с публичных трекеров). Перед использованием ссылки прочтите, пожалуйста Пользовательское соглашение, а также как можно дольше оставайтесь на раздаче! Для того, чтобы скачать сам торрент-файл (который видит больше источников), а также для того, чтобы поблагодарить релизера, вам необходимо зарегистрироваться. Если регистрироваться лень - вы можете также попробовать скачать релиз по нашим партнерским ссылкам ниже.

[underverse.su].t71259.torrent
Трекер: Зарегистрирован   [ 18.10.2016 14:01 ]  

Статус: T временная (by makkol at 19.10.2016 22:17)
Поблагодарили: пока никто не поблагодарил...
Тип торрента: публичный - доступные источники с открытых трекеров: 
Размер: 1,37 GB (занимает 0,31 DVDR, для записи нужно 1 болванка DVDR/RW)
 
 
Похожие темы
Форум Тема Автор Торрент Отв. Посл. сооб.
Зарубежное кино [DVDRip, Low-Res HDRip, и т.д.] Молодость / Youth (Паоло Соррентино) [2015 г., драма, HDRip] Dub makkol
61 | 2

0 | 341

32

03.03.2016 10:32

T Зарубежное кино [HDDVDRip / BDRip / WEB-DL / HDTV 1080/720р] Молодость по страховке / Wild Oats (Энди Теннант) [2016 г., драма, комедия, приключения, WEB-DL 1080p] Dub (iTunes) makkol
371 | 19

0 | 407

10

18.10.2016 14:12

T Зарубежное кино [HDDVDRip / BDRip / WEB-DL / HDTV 1080/720р] Молодость по страховке / Wild Oats (Энди Теннант) [2016 г., драма, комедия, приключения, WEB-DL 720p] Dub (iTunes) makkol
139 | 8

0 | 365

3

18.10.2016 14:06

Зарубежное кино [HDDVDRip / BDRip / WEB-DL / HDTV 1080/720р] Молодость / Youth (Паоло Соррентино) [2015 г., драма, BDRip 720p] Dub + Original + Subs makkol
41 | 2

0 | 365

16

03.03.2016 10:43

Зарубежное кино [HDDVDRip / BDRip / WEB-DL / HDTV 1080/720р] Молодость / Youth (Паоло Соррентино) [2015 г., драма, BDRip 1080p] Dub + Original + Subs makkol
23 | 2

0 | 325

12

03.03.2016 10:51


Яндекс.Метрика powered by Sphinx


В Н И М А Н И Е
Сайт не распространяет и не хранит электронные версии произведений, а лишь бесплатно и без коммерческой выгоды (не требуя взамен платы,
SMS и т.д.) предоставляет доступ к создаваемому пользователями каталогу ссылок на торрент-файлы, которые содержат только списки хеш-сумм.
Убедительная просьба с жалобами обращаться напрямую к пользователю, разместившему торрент файл.

Вверх