Loading...
Error

Пласидо Доминго: Мои лучшие роли / Placido Domingo: My Greatest Roles (Крис Хант) [2009 г., документальный, культура, искусство, биография, SatRip] Dub (Акцент-Про)

Статистика раздачи
Размер:  1,05 GB   |    Зарегистрирован:  1 месяц 23 дня   |    Скачан:  1 раз

Полного источника не было: 9 часов

Сидов:  0  |  0 KB/s  ]   Личеров:  0  |  0 KB/s  ]

* - сиды/пиры с внешних источников

   
 
Автор Сообщение

ARI71 Пол:Муж

18-Окт-2016 08:17

Пласидо Доминго: Мои лучшие роли / Placido Domingo: My Greatest Roles


Год выпуска: 2009
Жанр: документальный, культура, искусство, биография
Страна: Великобритания BBC Motion Gallery, C Major Entertaiment, Footage Farm, Opus ARTE, Radafilm
Режиссер: Крис Хант
В ролях: Пласидо Доминго
Сюжет фильма:
Пласидо Доминго рассказывает о своей жизни: детстве, первой встрече с музыкой, семье, любимых ролях, разнообразной деятельности – артиста, дирижера, покровителя и воспитателя молодых оперных артистов. В фильме также есть интервью ближайших друзей и коллег (Кири Теканава и других), рассказывающих о Пласидо Доминго – артисте и человеке. Звучат лучшие партии когда либо спетые великим тенором Пласидо Доминго в оперных театрах мира: арии из опер Руджьеро Леонкавалло, Джузеппе Верди, Рихарда Вагнера, Жорж Бизе, Джакомо Пуччини и др.

Пласидо Доминго (полное имя Хосе Пласидо Доминго Эмбиль (исп. José Plácido Domingo Embil; род. 21 января 1941, Мадрид, Испания) — испанский оперный певец, лирико-драматический тенор, дирижёр-постановщик в Вашингтонской опере и Опере Лос-Анджелеса.


Качество видео: SatRip

Продолжительность: 01:13:33
Формат: AVI
Видео: DivX 5, 704x400, 1842 kbps
Аудио: русский, дублированный [Акцент-Про], MP3 2.0, 192.00 kbps

Доп. информация: Подготовлено к эфиру ГТРК "Культура", 2012 г.

Рип от: maslovagal

Код:

Общее
Полное имя : D:\Domingo.SATRip.by.maslovagal.Muvitroll.avi
Формат : AVI
Формат/Информация : Audio Video Interleave
Размер файла : 1,05 Гбайт
Продолжительность : 1 ч. 13 м.
Общий поток : 2044 Кбит/сек
Программа кодирования : VirtualDubMod 1.5.10.2 (build 2540/release)
Библиотека кодирования : VirtualDubMod build 2540/release

Видео
Идентификатор : 0
Формат : MPEG-4 Visual
Параметр BVOP формата : Нет
Параметр QPel формата : Нет
Параметр GMC формата : Без точки перехода
Параметр матрицы формата : Default (H.263)
Идентификатор кодека : DX50
Идентификатор кодека/Подсказка : DivX 5
Продолжительность : 1 ч. 13 м.
Битрейт : 1842 Кбит/сек
Ширина : 704 пикселя
Высота : 400 пикселей
Соотношение сторон : 16:9
Частота кадров : 25,000 кадров/сек
Цветовое пространство : YUV
Субдискретизация насыщенности : 4:2:0
Битовая глубина : 8 бит
Тип развёртки : Прогрессивная
Метод сжатия : С потерями
Бит/(Пиксели*Кадры) : 0.262
Размер потока : 969 Мбайт (90%)
Библиотека кодирования : DivX 5.0.5 (UTC 2003-04-24)

Аудио
Идентификатор : 1
Формат : MPEG Audio
Версия формата : Version 1
Профиль формата : Layer 3
Режим : Joint stereo
Идентификатор кодека : 55
Идентификатор кодека/Подсказка : MP3
Продолжительность : 1 ч. 13 м.
Вид битрейта : Постоянный
Битрейт : 192 Кбит/сек
Каналы : 2 канала
Частота : 48,0 КГц
Метод сжатия : С потерями
Задержка видео : 16 мс.
Размер потока : 101 Мбайт (9%)
Выравнивание : Разделение по промежуткам
Продолжительность промежутка : 40 мс. (1,00 видеокадр)
Время предзагрузки промежутка : 500 мс.
picpicpicpicpic
Для увеличения картинки щелкните мышкой по превью

Этот торрент недоступен для скачивания без регистрации, однако доступен по публичной magnet-ссылке (источники с публичных трекеров). Перед использованием ссылки прочтите, пожалуйста Пользовательское соглашение, а также как можно дольше оставайтесь на раздаче! Для того, чтобы скачать сам торрент-файл (который видит больше источников), а также для того, чтобы поблагодарить релизера, вам необходимо зарегистрироваться. Если регистрироваться лень - вы можете также попробовать скачать релиз по нашим партнерским ссылкам ниже.

[underverse.su].t71249.torrent
Трекер: Зарегистрирован   [ 18.10.2016 08:17 ]  

Статус: проверено (by ARI71 at 18.10.2016 08:38)
Поблагодарили: пока никто не поблагодарил...
Тип торрента: публичный - доступные источники с открытых трекеров: 
Размер: 1,05 GB (занимает 0,24 DVDR, для записи нужно 1 болванка DVDR/RW)
 
 

ARI71 Пол:Муж

18-Окт-2016 08:18

Приятного всем просмотра!

Голосуй за трекер!!




Яндекс.Метрика powered by Sphinx


В Н И М А Н И Е
Сайт не распространяет и не хранит электронные версии произведений, а лишь бесплатно и без коммерческой выгоды (не требуя взамен платы,
SMS и т.д.) предоставляет доступ к создаваемому пользователями каталогу ссылок на торрент-файлы, которые содержат только списки хеш-сумм.
Убедительная просьба с жалобами обращаться напрямую к пользователю, разместившему торрент файл.

Вверх