Loading...
Error

Светская жизнь / Cafe Society (Вуди Аллен) [2016 г., драма, мелодрама, комедия, HDRip] Dub (iTunes)

Статистика раздачи
Размер:  1,37 GB   |    Зарегистрирован:  1 месяц 22 дня   |    Скачан:  8 раз

Полного источника не было: 5 дней

Сидов:  0  |  0 KB/s  ]   Личеров:  0  |  0 KB/s  ]

* - сиды/пиры с внешних источников

   
 
Автор Сообщение

makkol Пол:Муж

17-Окт-2016 21:37

Светская жизнь / Café Society


Год выпуска: 2016
Жанр: драма, мелодрама, комедия
Производство: США [FilmNation Entertainment, Gravier Productions, Perdido Productions]
Режиссер: Вуди Аллен
В ролях: Дженни Берлин, Стив Карелл, Джесси Айзенберг, Кристен Стюарт, Блэйк Лайвли, Паркер Поузи, Кори Столл, Кен Стотт, Анна Кэмп, Пол Шнайдер
Сюжет фильма:
1930-е годы. Молодой человек приезжает из Нью-Йорка в Голливуд в надежде найти работу в киноиндустрии. В Лос-Анджелесе он влюбляется и обнаруживает себя в самом центре водоворота бурной светской жизни и событий, определивших дух того времени.

  • Мировая премьера: 11 мая 2016
  • Российская премьера: 21 июля 2016


Качество видео: HDRip

Продолжительность: 01:35:55
Формат: AVI
Видео: XviD, 720x352 (2:1), 23.976 fps, 1643 kbps
Аудио: русский, дублированный (iTunes), AC3 5.1, 48 kHz, 384 kbps

Код:

Формат                                   : AVI
Формат/Информация                        : Audio Video Interleave
Размер файла                             : 1,37 Гбайт
Продолжительность                        : 1 ч. 36 м.
Общий поток                              : 2036 Кбит/сек
Программа кодирования                    : VirtualDubMod 1.5.10.2 (build 2540/release)
Библиотека кодирования                   : VirtualDubMod build 2540/release

Видео
Идентификатор                            : 0
Формат                                   : MPEG-4 Visual
Профиль формата                          : Advanced Simple@L5
Параметр BVOP формата                    : 2
Параметр QPel формата                    : Нет
Параметр GMC формата                     : Без точки перехода
Параметр матрицы формата                 : Выборочная
Идентификатор кодека                     : XVID
Идентификатор кодека/Подсказка           : XviD
Продолжительность                        : 1 ч. 36 м.
Битрейт                                  : 1643 Кбит/сек
Ширина                                   : 720 пикселей
Высота                                   : 352 пикселя
Соотношение сторон                       : 2,045
Частота кадров                           : 23,976 кадра/сек
Цветовое пространство                    : YUV
Субдискретизация насыщенности            : 4:2:0
Битовая глубина                          : 8 бит
Тип развёртки                            : Прогрессивная
Метод сжатия                             : С потерями
Бит/(Пиксели*Кадры)                      : 0.270
Размер потока                            : 1,10 Гбайт (81%)
Библиотека кодирования                   : XviD 1.2.1 (UTC 2008-12-04)

Аудио
Идентификатор                            : 1
Формат                                   : AC-3
Формат/Информация                        : Audio Coding 3
Расширение режима                        : CM (complete main)
Параметр Endianness формата              : Big
Идентификатор кодека                     : 2000
Продолжительность                        : 1 ч. 36 м.
Вид битрейта                             : Постоянный
Битрейт                                  : 384 Кбит/сек
Каналы                                   : 6 каналов
Расположение каналов                     : Front: L C R, Side: L R, LFE
Частота                                  : 48,0 КГц
Битовая глубина                          : 16 бит
Метод сжатия                             : С потерями
Размер потока                            : 264 Мбайт (19%)
Выравнивание                             : Разделение по промежуткам
Продолжительность промежутка             : 42  мс. (1,00 видеокадр)
Время предзагрузки промежутка            : 500  мс.


picpicpicpicpic
Для увеличения картинки щелкните мышкой по превью

Этот торрент недоступен для скачивания без регистрации, однако доступен по публичной magnet-ссылке (источники с публичных трекеров). Перед использованием ссылки прочтите, пожалуйста Пользовательское соглашение, а также как можно дольше оставайтесь на раздаче! Для того, чтобы скачать сам торрент-файл (который видит больше источников), а также для того, чтобы поблагодарить релизера, вам необходимо зарегистрироваться. Если регистрироваться лень - вы можете также попробовать скачать релиз по нашим партнерским ссылкам ниже.

[underverse.su].t71243.torrent
Трекер: Зарегистрирован   [ 17.10.2016 21:37 ]  

Статус: T временная (by makkol at 19.10.2016 22:12)
Поблагодарили: пока никто не поблагодарил...
Тип торрента: публичный - доступные источники с открытых трекеров: 
Размер: 1,37 GB (занимает 0,31 DVDR, для записи нужно 1 болванка DVDR/RW)
 
 
Похожие темы
Форум Тема Автор Торрент Отв. Посл. сооб.
T Зарубежное кино [DVDRip, Low-Res HDRip, и т.д.] Светская жизнь / Cafe Society (Вуди Аллен / Woody Allen) [2016 г., драма, мелодрама, комедия, HDRip] Dub (iTunes) 90ytr90
14 | 0

0 | 394

4

23.10.2016 07:26

T Зарубежное кино [DVDRip, Low-Res HDRip, и т.д.] Светская жизнь / Cafe Society (Вуди Аллен / Woody Allen) [2016 г., драма, мелодрама, комедия, BDRip-AVC] Dub (iTunes) + Original (Eng) + Sub (Eng) 90ytr90
34 | 1

0 | 384

7

23.10.2016 07:22

T Зарубежное кино [DVDRip, Low-Res HDRip, и т.д.] Светская жизнь / Cafe Society (Вуди Аллен / Woody Allen) [2016 г., драма, мелодрама, комедия, BDRip-AVC] Dub (iTunes) 90ytr90
42 | 0

0 | 375

6

23.10.2016 07:17

T Зарубежное кино [HDDVDRip / BDRip / WEB-DL / HDTV 1080/720р] Светская жизнь / Cafe Society (Вуди Аллен / Woody Allen) [2016 г., драма, мелодрама, комедия, BDRip 1080p] Dub (iTunes) + Original (Eng) + Sub (Eng) 90ytr90
201 | 3

0 | 249

2

19.11.2016 14:49

T Зарубежное кино [HDDVDRip / BDRip / WEB-DL / HDTV 1080/720р] Светская жизнь / Cafe Society (Вуди Аллен) [2016 г., драма, мелодрама, комедия, BDRip 1080p] Dub (iTunes) + Original makkol
2 | 0

0 | 372

7

17.10.2016 21:56

T Зарубежное кино [HDDVDRip / BDRip / WEB-DL / HDTV 1080/720р] Светская жизнь / Cafe Society (Вуди Аллен) [2016 г., драма, мелодрама, комедия, BDRip 720p] Dub (iTunes) + Original makkol
2 | 0

0 | 357

8

17.10.2016 21:47


Яндекс.Метрика powered by Sphinx


В Н И М А Н И Е
Сайт не распространяет и не хранит электронные версии произведений, а лишь бесплатно и без коммерческой выгоды (не требуя взамен платы,
SMS и т.д.) предоставляет доступ к создаваемому пользователями каталогу ссылок на торрент-файлы, которые содержат только списки хеш-сумм.
Убедительная просьба с жалобами обращаться напрямую к пользователю, разместившему торрент файл.

Вверх