Loading...
Error

Небольшое привидение: Одна ночь в проклятом доме / Mostly Ghostly 3: One Night in Doom House (Рон Оливер) [2016 г., ужасы, фэнтези, семейный, DVDRip] MVO

Статистика раздачи
Размер:  1,37 GB   |    Зарегистрирован:  1 месяц 17 дней   |    Скачан:  1 раз

Полного источника не было: 1 месяц 15 дней

Сидов:  0  |  0 KB/s  ]   Личеров:  0  |  0 KB/s  ]

* - сиды/пиры с внешних источников

   
 
Автор Сообщение

makkol Пол:Муж

16-Окт-2016 14:08

Небольшое привидение: Одна ночь в проклятом доме
Mostly Ghostly 3: One Night in Doom House


Год выпуска: 2016
Жанр: ужасы, фэнтези, семейный
Производство: США [Commotion Pictures, Mostly Ghostly 3 Productions]
Режиссер: Рон Оливер
В ролях: Кори Фогельманис, Софи Рейнольдс, Блейк Майкл, Оливия Райан Штерн, Вивиан Фулл, Эндрю Херр, Джедидайя Гудакр, Джейми Кеннеди, Дэнни Трехо, Питер ДеЛуис
Сюжет фильма:
Поклонник ужастиков Р. Л. Стайна, Макс Дойл уверен в том, что вещи из дома с привидениями способны помочь его друзьям Ники и Таре уладить конфликт с одним призраком. Кроме того, Макс имеет твёрдое убеждение, что у него есть духи-знакомые, способные поддержать в любую минуту и поэтому не боится рисковать…

Качество видео: DVDRip

Продолжительность: 01:25:20
Формат: AVI
Видео: XviD, 720x400 (16:9), 25.000 fps, 1900 kbps
Аудио: русский, любительский многоголосый закадровый (Синема УС), AC3 2.0, 48 kHz, 384 kbps

Код:

Формат                                   : AVI
Формат/Информация                        : Audio Video Interleave
Размер файла                             : 1,37 Гбайт
Продолжительность                        : 1 ч. 25 м.
Общий поток                              : 2294 Кбит/сек
Программа кодирования                    : VirtualDubMod 1.5.10.2 (build 2540/release)
Библиотека кодирования                   : VirtualDubMod build 2540/release

Видео
Идентификатор                            : 0
Формат                                   : MPEG-4 Visual
Профиль формата                          : Advanced Simple@L5
Параметр BVOP формата                    : 2
Параметр QPel формата                    : Нет
Параметр GMC формата                     : Без точки перехода
Параметр матрицы формата                 : Default (MPEG)
Идентификатор кодека                     : XVID
Идентификатор кодека/Подсказка           : XviD
Продолжительность                        : 1 ч. 25 м.
Битрейт                                  : 1900 Кбит/сек
Ширина                                   : 720 пикселей
Высота                                   : 400 пикселей
Соотношение сторон                       : 16:9
Частота кадров                           : 25,000 кадров/сек
Цветовое пространство                    : YUV
Субдискретизация насыщенности            : 4:2:0
Битовая глубина                          : 8 бит
Тип развёртки                            : Прогрессивная
Метод сжатия                             : С потерями
Бит/(Пиксели*Кадры)                      : 0.264
Размер потока                            : 1,13 Гбайт (83%)
Библиотека кодирования                   : XviD 1.2.1 (UTC 2008-12-04)

Аудио
Идентификатор                            : 1
Формат                                   : AC-3
Формат/Информация                        : Audio Coding 3
Расширение режима                        : CM (complete main)
Параметр Endianness формата              : Big
Идентификатор кодека                     : 2000
Продолжительность                        : 1 ч. 25 м.
Вид битрейта                             : Постоянный
Битрейт                                  : 384 Кбит/сек
Каналы                                   : 2 канала
Расположение каналов                     : Front: L R
Частота                                  : 48,0 КГц
Частота кадров                           : 31,250 кадров/сек (1536 spf)
Метод сжатия                             : С потерями
Размер потока                            : 234 Мбайт (17%)
Выравнивание                             : Разделение по промежуткам
Продолжительность промежутка             : 40  мс. (1,00 видеокадр)
Время предзагрузки промежутка            : 500  мс.


picpicpicpicpic
Для увеличения картинки щелкните мышкой по превью

Этот торрент недоступен для скачивания без регистрации, однако доступен по публичной magnet-ссылке (источники с публичных трекеров). Перед использованием ссылки прочтите, пожалуйста Пользовательское соглашение, а также как можно дольше оставайтесь на раздаче! Для того, чтобы скачать сам торрент-файл (который видит больше источников), а также для того, чтобы поблагодарить релизера, вам необходимо зарегистрироваться. Если регистрироваться лень - вы можете также попробовать скачать релиз по нашим партнерским ссылкам ниже.

[underverse.su].t71187.torrent
Трекер: Зарегистрирован   [ 16.10.2016 14:08 ]  

Статус: T временная (by makkol at 19.10.2016 22:08)
Поблагодарили: пока никто не поблагодарил...
Тип торрента: публичный - доступные источники с открытых трекеров: 
Размер: 1,37 GB (занимает 0,31 DVDR, для записи нужно 1 болванка DVDR/RW)
 
 
Похожие темы
Форум Тема Автор Торрент Отв. Посл. сооб.
T Зарубежное кино [DVDRip, Low-Res HDRip, и т.д.] Небольшое ДТП / Fender Bender (Марк Павиа / Mark Pavia) [2016 г., ужасы, триллер, WEB-DLRip] VO (Хихидок) + Original (Eng) + Sub (Eng) 90ytr90
68 | 4

0 | 441

6

27.10.2016 17:51

T Зарубежное кино [DVDRip, Low-Res HDRip, и т.д.] Небольшое привидение: Одна ночь в проклятом доме / Mostly Ghostly 3: One Night in Doom House (Рон Оливер / Ron Oliver) [2016 г., ужасы, фэнтези, семейный, WEB-DLRip] Dub (iTunes) 90ytr90
60 | 5

0 | 408

7

20.10.2016 16:34

T Зарубежное кино [DVDRip, Low-Res HDRip, и т.д.] Небольшое привидение: Одна ночь в проклятом доме / Mostly Ghostly 3: One Night in Doom House (Рон Оливер / Ron Oliver) [2016 г., ужасы, фэнтези, семейный, WEB-DLRip] Dub (iTunes) 90ytr90
66 | 3

0 | 397

4

20.10.2016 16:29

Зарубежное кино [DVDRip, Low-Res HDRip, и т.д.] Небольшое привидение / Mostly Ghostly (Ричард Коррелл) [2008 г., фэнтези, детский, DVDRip] DVO makkol
0 | 0

1 | 525

4

06.04.2016 17:11

Зарубежное кино [DVDRip, Low-Res HDRip, и т.д.] Небольшое привидение: Вы знакомы с моим другом вурдалаком? / Mostly Ghostly: Have You Met My Ghoulfriend? (Питер Хьюит) [2014 г., комедия, семейный, HDRip] Dub makkol
1 | 0

0 | 968

13

27.03.2016 22:57

T Зарубежное кино [HDDVDRip / BDRip / WEB-DL / HDTV 1080/720р] Небольшое привидение: Одна ночь в проклятом доме / Mostly Ghostly 3: One Night in Doom House (Рон Оливер / Ron Oliver) [2016 г., ужасы, фэнтези, семейный, WEB-DL 720p] Dub (iTunes) + Original (Eng) +... 90ytr90
85 | 8

0 | 401

2

20.10.2016 16:40

Зарубежное кино [HDDVDRip / BDRip / WEB-DL / HDTV 1080/720р] Небольшое привидение / Mostly Ghostly (Ричард Коррелл) [2008 г., фэнтези, детский, WEB-DL 720p] DVO + Original makkol
24 | 7

0 | 605

3

10.09.2015 13:27

Зарубежное кино [HDDVDRip / BDRip / WEB-DL / HDTV 1080/720р] Небольшое привидение: Вы знакомы с моим другом вурдалаком? / Mostly Ghostly: Have You Met My Ghoulfriend? (Питер Хьюит) [2014 г., комедия, семейный, BDRip 720p] Dub + Original makkol
0 | 0

0 | 1008

10

27.03.2016 23:07


Яндекс.Метрика powered by Sphinx


В Н И М А Н И Е
Сайт не распространяет и не хранит электронные версии произведений, а лишь бесплатно и без коммерческой выгоды (не требуя взамен платы,
SMS и т.д.) предоставляет доступ к создаваемому пользователями каталогу ссылок на торрент-файлы, которые содержат только списки хеш-сумм.
Убедительная просьба с жалобами обращаться напрямую к пользователю, разместившему торрент файл.

Вверх