Loading...
Error

Ада Лавлейс: первая леди программирования / Calculating Ada: The Countess of Computing (Нат Шарман) [2015 г., документальный, научно-популярный, математика, HDTVRip] DVO (Da Vinci Learning)

Статистика раздачи
Размер:  796 MB   |    Зарегистрирован:  1 месяц 24 дня   |    Скачан:  0 раз

Полного источника не было: Никогда

Сидов:  0  |  0 KB/s  ]   Личеров:  0  |  0 KB/s  ]

* - сиды/пиры с внешних источников

   
 
Автор Сообщение

ARI71 Пол:Муж

16-Окт-2016 12:01

Ада Лавлейс: первая леди программирования / Calculating Ada: The Countess of Computing


Год выпуска: 2015
Жанр: документальный, научно-популярный, математика
Страна: Великобритания BBC Scotland Science Production, The Open University Partnership
Режиссер: Нат Шарман
Ведущая: - математик, Ханна Фрай
Сюжет фильма:
10 декабря названо Днем программиста в честь родившейся также в этот день первой представительницы этой, сравнительно "молодой", профессии Ады Августы Лавлейс, единственной дочери прославленного английского поэта Джорджа Гордона Байрона и его супруги Аннабеллы Милбэнк. Возможно вы думали, что у истоков компьютерной эры стояли ученые-энтузиасты из Калифорнии или шифровальщики времен Второй мировой войны? Однако, первопроходец, прежде всех осознавший истинный потенциал компьютеров, жил гораздо раньше, в эпоху промышленной революции, когда мир стремительно менялся. Этот фильм рассказывает о неординарной и увлекательной жизни Ады Лавлейс - первого в мире программиста - и о том, как ее неповторимые качества - живое воображение и безупречная логика - сделали ее провозвестником нашей цифровой эпохи.

Авгу́ста А́да Кинг (урождённая Ба́йрон), графиня Ла́влейс (англ. Augusta Ada King Byron, Countess of Lovelace), более известная как Ада Лавлейс (10 декабря 1815, Лондон, Великобритания — 27 ноября 1852, Лондон) — математик. Известна прежде всего созданием описания вычислительной машины, проект которой был разработан Чарльзом Бэббиджем. Составила первую в мире программу (для этой машины). Ввела в употребление термины «цикл» и «рабочая ячейка», считается первым программистом в истории.
Качество видео: HDTVRip

Продолжительность: 00:58:33
Формат: AVI
Видео: XviD, 720x400, 1700 kbps
Аудио: русский, двухголосый закадровый [профессиональный, Da Vinci Learning], AC3 2.0, 192.00 kbps

Автор рипа: RockeT

Код:

Общее
Полное имя : D:\BBC_Calculating Ada_The Countess of Computing.HDTVRip.by RockeT [KaztorrentS].avi
Формат : AVI
Формат/Информация : Audio Video Interleave
Размер файла : 796 Мбайт
Продолжительность : 58 м.
Общий поток : 1902 Кбит/сек
Программа кодирования : VirtualDubMod 1.5.10.3 | www.virtualdub-fr.org || (build 2550/release)
Библиотека кодирования : VirtualDubMod build 2550/release

Видео
Идентификатор : 0
Формат : MPEG-4 Visual
Профиль формата : Advanced Simple@L5
Параметр BVOP формата : 1
Параметр QPel формата : Нет
Параметр GMC формата : Без точки перехода
Параметр матрицы формата : Default (MPEG)
Идентификатор кодека : XVID
Идентификатор кодека/Подсказка : XviD
Продолжительность : 58 м.
Битрейт : 1700 Кбит/сек
Ширина : 720 пикселей
Высота : 400 пикселей
Соотношение сторон : 16:9
Частота кадров : 25,000 кадров/сек
Цветовое пространство : YUV
Субдискретизация насыщенности : 4:2:0
Битовая глубина : 8 бит
Тип развёртки : Прогрессивная
Метод сжатия : С потерями
Бит/(Пиксели*Кадры) : 0.236
Размер потока : 712 Мбайт (89%)
Библиотека кодирования : XviD 1.2.1 (UTC 2008-12-04)

Аудио
Идентификатор : 1
Формат : AC-3
Формат/Информация : Audio Coding 3
Расширение режима : CM (complete main)
Параметр Endianness формата : Big
Идентификатор кодека : 2000
Продолжительность : 58 м.
Вид битрейта : Постоянный
Битрейт : 192 Кбит/сек
Каналы : 2 канала
Расположение каналов : Front: L R
Частота : 48,0 КГц
Частота кадров : 31,250 кадров/сек (1536 spf)
Метод сжатия : С потерями
Размер потока : 80,4 Мбайт (10%)
Выравнивание : Разделение по промежуткам
Продолжительность промежутка : 40 мс. (1,00 видеокадр)
Время предзагрузки промежутка : 500 мс.
picpicpicpicpic
Для увеличения картинки щелкните мышкой по превью

Этот торрент недоступен для скачивания без регистрации, однако доступен по публичной magnet-ссылке (источники с публичных трекеров). Перед использованием ссылки прочтите, пожалуйста Пользовательское соглашение, а также как можно дольше оставайтесь на раздаче! Для того, чтобы скачать сам торрент-файл (который видит больше источников), а также для того, чтобы поблагодарить релизера, вам необходимо зарегистрироваться. Если регистрироваться лень - вы можете также попробовать скачать релиз по нашим партнерским ссылкам ниже.

[underverse.su].t71173.torrent
Трекер: Зарегистрирован   [ 16.10.2016 12:01 ]  

Статус: проверено (by ARI71 at 16.10.2016 12:06)
Поблагодарили: пока никто не поблагодарил...
Тип торрента: публичный - доступные источники с открытых трекеров: 
Размер: 796 MB (занимает 0,18 DVDR, для записи нужно 1 болванка DVDR/RW)
 
 
Похожие темы
Форум Тема Автор Торрент Отв. Посл. сооб.
BBC Ада Лавлейс: первая леди программирования / Calculating Ada: The Countess of Computing (Нат Шарман) [2015 г., документальный, научно-популярный, математика, HDTVRip 720p] DVO (Da Vinci Learning) ARI71
6 | 0

1 | 136

1

13.10.2016 12:18

ARI71 Пол:Муж

16-Окт-2016 12:05

Приятного всем просмотра!

Голосуй за трекер!!




Яндекс.Метрика powered by Sphinx


В Н И М А Н И Е
Сайт не распространяет и не хранит электронные версии произведений, а лишь бесплатно и без коммерческой выгоды (не требуя взамен платы,
SMS и т.д.) предоставляет доступ к создаваемому пользователями каталогу ссылок на торрент-файлы, которые содержат только списки хеш-сумм.
Убедительная просьба с жалобами обращаться напрямую к пользователю, разместившему торрент файл.

Вверх