Loading...
Error

Александр Великий / Alexander der Grobe (1-2 серии из 2) / (Мартин Казаро Мендез, Кристиан Твенте) [2014 г., документальный, игровой, история, SatRip] DVO (Видеофильм ТВ)

Статистика раздачи
Размер:  1,21 GB   |    Зарегистрирован:  1 месяц 20 дней   |    Скачан:  5 раз

Полного источника не было: 7 дней

Сидов:  0  |  0 KB/s  ]   Личеров:  0  |  0 KB/s  ]

* - сиды/пиры с внешних источников

   
 
Автор Сообщение

ARI71 Пол:Муж

16-Окт-2016 08:07

Александр Великий / Alexander der Große (1-2 серии из 2)


Год выпуска: 2014
Жанр: документальный, игровой, история
Страна: Германия ZDF Enterprises, Atlantis Film
Режиссер: Мартин Казаро Мендез, Кристиан Твенте
Сюжет фильма:
Александр Великий - один из самых блестящих и загадочных полководцев всех времен. В тридцать лет он правил одной из крупнейших империй в истории. Попробуем разобраться, зачем Александр покорял дальние страны. Кто он? Гениальный полководец или кровожадный тиран? Человек-легенда. Но, в итоге, не сделался ли властолюбивый Александр злейшим врагом самому себе? Казалось бы, без особых усилий, македонец создал самую большую империю древности в течение одиннадцати лет. После его ранней смерти в 323 г. до н.э., империя Александра распадается в течение короткого промежутка времени. Но имперская идея повлияла на последующую историю Европы, от Цезаря до Наполеона и за его пределами.
Качество видео: SatRip

Продолжительность: 2 x ~00:43:30
Формат: AVI
Видео: XviD, 720x400, 1798 kbps
Аудио: русский, двухголосый закадровый [профессиональный, Видеофильм ТВ], AC3 2.0, 192.00 kbps
(тех. данные обеих серий идентичны)

Автор Rip'а: skorpionN

Код:

Общее
Полное имя : D:\Alexander der Grosse\01_Auf dem Weg zur Macht.avi
Формат : AVI
Формат/Информация : Audio Video Interleave
Размер файла : 622 Мбайт
Продолжительность : 43 м.
Общий поток : 1998 Кбит/сек
Программа кодирования : TMPGEnc Video Mastering Works 5 Version. 5.0.6.38
Библиотека кодирования : TMPGEnc Video Mastering Works 5 Version. 5.0.6.38

Видео
Идентификатор : 0
Формат : MPEG-4 Visual
Профиль формата : Advanced Simple@L5
Параметр BVOP формата : 2
Параметр QPel формата : Нет
Параметр GMC формата : Без точки перехода
Параметр матрицы формата : Default (H.263)
Режим смешивания : Сжатый битовый поток
Идентификатор кодека : XVID
Идентификатор кодека/Подсказка : XviD
Продолжительность : 43 м.
Битрейт : 1798 Кбит/сек
Ширина : 720 пикселей
Высота : 400 пикселей
Соотношение сторон : 16:9
Частота кадров : 25,000 кадров/сек
Цветовое пространство : YUV
Субдискретизация насыщенности : 4:2:0
Битовая глубина : 8 бит
Тип развёртки : Прогрессивная
Метод сжатия : С потерями
Бит/(Пиксели*Кадры) : 0.250
Размер потока : 559 Мбайт (90%)
Библиотека кодирования : XviD 73

Аудио
Идентификатор : 1
Формат : AC-3
Формат/Информация : Audio Coding 3
Расширение режима : CM (complete main)
Параметр Endianness формата : Big
Идентификатор кодека : 2000
Продолжительность : 43 м.
Вид битрейта : Постоянный
Битрейт : 192 Кбит/сек
Каналы : 2 канала
Расположение каналов : Front: L R
Частота : 48,0 КГц
Частота кадров : 31,250 кадров/сек (1536 spf)
Метод сжатия : С потерями
Размер потока : 59,7 Мбайт (10%)
Выравнивание : Соединение по промежуткам
Продолжительность промежутка : 240 мс. (6,00 видеокадров)
Время предзагрузки промежутка : 224 мс.
01. На пути к власти / Auf dem Weg zur Macht
Первый эпизод документального фильма «На пути к власти," фокусируется на детских и юношеских годах Александра. Какие события в его жизни сыграли важную роль и что именно повлияло на развитие Александра?

02. До края света / Bis ans Ende der Welt
Во втором эпизоде фильма - "До края света" мы узнаем о завоеваниях Александра. Александр и его войска идут через Малую Азию, Египет, Персию и Пакистан в Индию - "конец" известного тогда мира
picpicpicpicpic
Для увеличения картинки щелкните мышкой по превью

Этот торрент недоступен для скачивания без регистрации, однако доступен по публичной magnet-ссылке (источники с публичных трекеров). Перед использованием ссылки прочтите, пожалуйста Пользовательское соглашение, а также как можно дольше оставайтесь на раздаче! Для того, чтобы скачать сам торрент-файл (который видит больше источников), а также для того, чтобы поблагодарить релизера, вам необходимо зарегистрироваться. Если регистрироваться лень - вы можете также попробовать скачать релиз по нашим партнерским ссылкам ниже.

[underverse.su].t71164.torrent
Трекер: Зарегистрирован   [ 16.10.2016 08:07 ]  

Статус: проверено (by ARI71 at 16.10.2016 08:11)
Поблагодарили: пока никто не поблагодарил...
Тип торрента: публичный - доступные источники с открытых трекеров: 
Размер: 1,21 GB (занимает 0,28 DVDR, для записи нужно 1 болванка DVDR/RW)
 
 
Похожие темы
Форум Тема Автор Торрент Отв. Посл. сооб.
Зарубежное кино [DVDRip, Low-Res HDRip, и т.д.] Александр / Alexander (Оливер Стоун) [2004 г., боевик, мелодрама, драма, приключения, военный, биография, история, ..., HD DVDRip] Joey
1 | 0

1 | 1201

7

17.06.2010 12:55

Зарубежное кино [DVDRip, Low-Res HDRip, и т.д.] Александр / Alexander (Оливер Стоун) [2004 г., боевик, драма, мелодрама, приключения, военный, биография, история, HDRip ] Dub ryzhkovroman
0 | 0

6 | 1280

1

18.02.2013 17:27

Зарубежное кино [DVDRip, Low-Res HDRip, и т.д.] Александр и ужасный, кошмарный, нехороший, очень плохой день / Alexander and the Terrible, Horrible, No Good, Very Bad Day (Мигель Артета / Miguel Arteta) [2014 г., комедия, семейный, HDRip] Dub 90ytr90
18 | 0

0 | 431

14

09.02.2015 16:55

Зарубежное кино [DVDRip, Low-Res HDRip, и т.д.] Александр и ужасный, кошмарный, нехороший, очень плохой день / Alexander and the Terrible, Horrible, No Good, Very Bad Day (Мигель Артета / Miguel Arteta) [2014 г., комедия, семейный, HDRip] Dub 90ytr90
1 | 0

0 | 463

8

09.02.2015 17:33

Кино СССР Александр Невский (Сергей Эйзенштейн, Дмитрий Васильев, Борис Иванов) [1938 г., история, DVDRip] 90ytr90
2 | 0

0 | 843

6

06.12.2014 21:56

Информационно-аналитические передачи Александр Невзоров: "Уроки атеизма" [2012 г., документальный, TVRip] матроскин
1 | 0

1 | 1297

6

27.04.2013 06:30

Личности Александр Блок. Я медленно сходил с ума (Анна Филимонова) [2016 г., документальный, биография, SatRip] ARI71
0 | 0

0 | 260

0

21.11.2016 14:54

Личности Александр Кайдановский. По лезвию бритвы (Лариса Кичаева) [2016 г., документальный, кинематограф, биография, IPTVRip] ARI71
4 | 0

1 | 552

1

02.10.2016 18:01

Личности Александр Зацепин. Этот мир придуман не мной (Филипп Сурков) [2010 г., документальный, биография, искусство, культура, SatRip] ARI71
0 | 0

0 | 637

1

21.07.2016 18:16

Личности Александр Кайдановский. Сжимая лезвие в ладони (Вера Травкина) [2016 г., документальный, биография, SatRip] ARI71
0 | 0

0 | 558

6

23.07.2016 09:00

ARI71 Пол:Муж

16-Окт-2016 08:07

Приятного всем просмотра!

Голосуй за трекер!!




Яндекс.Метрика powered by Sphinx


В Н И М А Н И Е
Сайт не распространяет и не хранит электронные версии произведений, а лишь бесплатно и без коммерческой выгоды (не требуя взамен платы,
SMS и т.д.) предоставляет доступ к создаваемому пользователями каталогу ссылок на торрент-файлы, которые содержат только списки хеш-сумм.
Убедительная просьба с жалобами обращаться напрямую к пользователю, разместившему торрент файл.

Вверх