Loading...
Error

Загадка Шекспира / Das Shakespeare Ratsel (The Shakespeare Enigma) / (Айк Шмитц) [2011 г., документальный, игровой, история, SatRip] VO (Видеофильм ТВ)

Статистика раздачи
Размер:  745 MB   |    Зарегистрирован:  1 месяц 21 день   |    Скачан:  0 раз

Полного источника не было: Никогда

Сидов:  0  |  0 KB/s  ]   Личеров:  0  |  0 KB/s  ]

* - сиды/пиры с внешних источников

   
 
Автор Сообщение

ARI71 Пол:Муж

15-Окт-2016 16:08

Загадка Шекспира / Das Shakespeare Ratsel (The Shakespeare Enigma)


Год выпуска: 2011
Жанр: документальный, игровой, история
Страна: Германия ZDF Enterprises, Atlantis Film
Режиссер: Айк Шмитц
В ролях: Роланд Эммерих, Бастиан Конрад, Герд Хайденрайх
Сюжет фильма:
Фильм посвящен исследованию "шекспировского вопроса", а именно – кем на самом деле был Уильям Шекспир? Существует распространенная теория о том, что Шекспир – лишь псевдоним, за которым скрывался истинный автор знаменитых пьес. Согласно этой теории, одним из кандидатов на авторство творений Шекспира является Кристофер Марло, английский поэт и драматург елизаветинской эпохи. Первые пьесы Шекспира были поставлены уже после внезапной смерти Марло в 1593 году, что, на первый взгляд, исключает Марло из списка вероятных авторов. Однако в фильме "Загадка Шекспира" биографы и историки предлагают новую версию событий: Кристофер Марло имитировал собственную смерть, дабы избежать преследований со стороны Елизаветы I, а затем посвятил свою жизнь литературе, используя псевдоним. Фильм изобилует красочными реконструкциями и погружает зрителя в золотой век елизаветинской эпохи.


Качество видео: SatRip

Продолжительность: 00:52:08
Формат: AVI
Видео: XviD, 720x400, 1798 kbps
Аудио: русский, одноголосый [профессиональный, Видеофильм ТВ], AC3 2.0, 192.00 kbps

Автор рипа: skorpionN

Код:

Общее
Полное имя : D:\Das Shakespeare Ratsel.avi
Формат : AVI
Формат/Информация : Audio Video Interleave
Размер файла : 745 Мбайт
Продолжительность : 52 м.
Общий поток : 1998 Кбит/сек
Программа кодирования : TMPGEnc Video Mastering Works 5 Version. 5.0.6.38
Библиотека кодирования : TMPGEnc Video Mastering Works 5 Version. 5.0.6.38

Видео
Идентификатор : 0
Формат : MPEG-4 Visual
Профиль формата : Advanced Simple@L5
Параметр BVOP формата : 2
Параметр QPel формата : Нет
Параметр GMC формата : Без точки перехода
Параметр матрицы формата : Default (H.263)
Режим смешивания : Сжатый битовый поток
Идентификатор кодека : XVID
Идентификатор кодека/Подсказка : XviD
Продолжительность : 52 м.
Битрейт : 1798 Кбит/сек
Ширина : 720 пикселей
Высота : 400 пикселей
Соотношение сторон : 16:9
Частота кадров : 25,000 кадров/сек
Цветовое пространство : YUV
Субдискретизация насыщенности : 4:2:0
Битовая глубина : 8 бит
Тип развёртки : Прогрессивная
Метод сжатия : С потерями
Бит/(Пиксели*Кадры) : 0.250
Размер потока : 671 Мбайт (90%)
Библиотека кодирования : XviD 73

Аудио
Идентификатор : 1
Формат : AC-3
Формат/Информация : Audio Coding 3
Расширение режима : CM (complete main)
Параметр Endianness формата : Big
Идентификатор кодека : 2000
Продолжительность : 52 м.
Вид битрейта : Постоянный
Битрейт : 192 Кбит/сек
Каналы : 2 канала
Расположение каналов : Front: L R
Частота : 48,0 КГц
Частота кадров : 31,250 кадров/сек (1536 spf)
Метод сжатия : С потерями
Размер потока : 71,6 Мбайт (10%)
Выравнивание : Соединение по промежуткам
Продолжительность промежутка : 240 мс. (6,00 видеокадров)
Время предзагрузки промежутка : 224 мс.
picpicpicpicpic
Для увеличения картинки щелкните мышкой по превью

Этот торрент недоступен для скачивания без регистрации, однако доступен по публичной magnet-ссылке (источники с публичных трекеров). Перед использованием ссылки прочтите, пожалуйста Пользовательское соглашение, а также как можно дольше оставайтесь на раздаче! Для того, чтобы скачать сам торрент-файл (который видит больше источников), а также для того, чтобы поблагодарить релизера, вам необходимо зарегистрироваться. Если регистрироваться лень - вы можете также попробовать скачать релиз по нашим партнерским ссылкам ниже.

[underverse.su].t71128.torrent
Трекер: Зарегистрирован   [ 15.10.2016 16:08 ]  

Статус: проверено (by ARI71 at 15.10.2016 16:11)
Поблагодарили: пока никто не поблагодарил...
Тип торрента: публичный - доступные источники с открытых трекеров: 
Размер: 745 MB (занимает 0,17 DVDR, для записи нужно 1 болванка DVDR/RW)
 
 

ARI71 Пол:Муж

15-Окт-2016 16:09

Приятного всем просмотра!

Голосуй за трекер!!




Яндекс.Метрика powered by Sphinx


В Н И М А Н И Е
Сайт не распространяет и не хранит электронные версии произведений, а лишь бесплатно и без коммерческой выгоды (не требуя взамен платы,
SMS и т.д.) предоставляет доступ к создаваемому пользователями каталогу ссылок на торрент-файлы, которые содержат только списки хеш-сумм.
Убедительная просьба с жалобами обращаться напрямую к пользователю, разместившему торрент файл.

Вверх