Loading...
Error

Трагедии советских кинозвёзд (Елена Лапенкова) [2016 г., документальный, биография, кинематограф, SatRip]

Статистика раздачи
Размер:  540 MB   |    Зарегистрирован:  1 месяц 25 дней   |    Скачан:  3 раза

Полного источника не было: 1 день 3 часа

Сидов:  0  |  0 KB/s  ]   Личеров:  0  |  0 KB/s  ]

* - сиды/пиры с внешних источников

   
 
Автор Сообщение

ARI71 Пол:Муж

14-Окт-2016 15:29

Трагедии советских кинозвёзд


Год выпуска: 2016
Жанр: документальный, биография, кинематограф
Страна: Россия ООО "Кит Медиа"
Режиссер: Елена Лапенкова
В ролях: Ирина Печерникова, Татьяна Самойлова, Валентина Малявина, Наталья Кустинская
Сюжет фильма:
Первые красавицы советского киноэкрана – Ирина Печерникова, Татьяна Самойлова, Валентина Малявина, Наталья Кустинская. Казалось, их карьера будет блестящей, а будущее – светлым и безбедным. Но судьба подготовила для них другой сценарий… Пик славы, а затем – годы забвения, неудачные браки, сложные отношения с детьми, проблемы с алкоголем, тюрьма, старость в нищете… Почему же звёзды тех, кто, казалось, был рождён блистать и побеждать, так ярко вспыхнули и так стремительно и бесславно погасли? Неужели невероятная, несоветская красота знаменитых актрис времён "оттепели" стала для них не только даром свыше, но и проклятием? Участники: Ирина Печерникова – актриса, Геновард Терехова – подруга Ирины Печерниковой, Борис Галкин – актёр, Эдуард Мошкович – продюсер, Ирина Мирошниченко – актриса, Наталья Белохвостикова – актриса, Валерий Усков – режиссёр и другие.
Качество видео: SatRip

Продолжительность: 00:38:58
Формат: AVI
Видео: XviD, 704x448, 1800 kbps
Аудио: русский, (оригинал), MP3 2.0, 128.00 kbps

Код:

Общее
Полное имя : D:\Tragedii.sovetskih.kinozvjozd.2016.10.13.SATRip.[www.riperam.org].avi
Формат : AVI
Формат/Информация : Audio Video Interleave
Размер файла : 540 Мбайт
Продолжительность : 38 м.
Общий поток : 1938 Кбит/сек
Программа кодирования : VirtualDubModRus 1.5.10.2 (build 2542/release)
Библиотека кодирования : VirtualDubMod build 2542/release

Видео
Идентификатор : 0
Формат : MPEG-4 Visual
Профиль формата : Advanced Simple@L5
Параметр BVOP формата : 2
Параметр QPel формата : Нет
Параметр GMC формата : Без точки перехода
Параметр матрицы формата : Default (MPEG)
Идентификатор кодека : XVID
Идентификатор кодека/Подсказка : XviD
Продолжительность : 38 м.
Битрейт : 1800 Кбит/сек
Ширина : 704 пикселя
Высота : 448 пикселей
Соотношение сторон : 16:10
Частота кадров : 25,000 кадров/сек
Цветовое пространство : YUV
Субдискретизация насыщенности : 4:2:0
Битовая глубина : 8 бит
Тип развёртки : Прогрессивная
Метод сжатия : С потерями
Бит/(Пиксели*Кадры) : 0.228
Размер потока : 502 Мбайт (93%)
Библиотека кодирования : XviD 73

Аудио
Идентификатор : 1
Формат : MPEG Audio
Версия формата : Version 1
Профиль формата : Layer 3
Идентификатор кодека : 55
Идентификатор кодека/Подсказка : MP3
Продолжительность : 38 м.
Вид битрейта : Постоянный
Битрейт : 128 Кбит/сек
Каналы : 2 канала
Частота : 48,0 КГц
Метод сжатия : С потерями
Размер потока : 35,7 Мбайт (7%)
Выравнивание : Соединение по промежуткам
Продолжительность промежутка : 40 мс. (1,00 видеокадр)
Время предзагрузки промежутка : 504 мс.
Библиотека кодирования : LAME3.99r
Настройки программы : -m s -V 4 -q 2 -lowpass 17 -b 128
picpicpicpicpic
Для увеличения картинки щелкните мышкой по превью

Этот торрент недоступен для скачивания без регистрации, однако доступен по публичной magnet-ссылке (источники с публичных трекеров). Перед использованием ссылки прочтите, пожалуйста Пользовательское соглашение, а также как можно дольше оставайтесь на раздаче! Для того, чтобы скачать сам торрент-файл (который видит больше источников), а также для того, чтобы поблагодарить релизера, вам необходимо зарегистрироваться. Если регистрироваться лень - вы можете также попробовать скачать релиз по нашим партнерским ссылкам ниже.

[underverse.su].t71065.torrent
Трекер: Зарегистрирован   [ 14.10.2016 15:29 ]  

Статус: проверено (by ARI71 at 14.10.2016 15:33)
Поблагодарили: 1 человек
Тип торрента: публичный - доступные источники с открытых трекеров: 
Размер: 540 MB (занимает 0,12 DVDR, для записи нужно 1 болванка DVDR/RW)
 
 

ARI71 Пол:Муж

14-Окт-2016 15:30

Приятного всем просмотра!

Голосуй за трекер!!




Яндекс.Метрика powered by Sphinx


В Н И М А Н И Е
Сайт не распространяет и не хранит электронные версии произведений, а лишь бесплатно и без коммерческой выгоды (не требуя взамен платы,
SMS и т.д.) предоставляет доступ к создаваемому пользователями каталогу ссылок на торрент-файлы, которые содержат только списки хеш-сумм.
Убедительная просьба с жалобами обращаться напрямую к пользователю, разместившему торрент файл.

Вверх