Loading...
Error

Тень внутри / The Shadow Within (Сильвана Дзанколо) [2007 г., ужасы, триллер, DVDRip] AVO (Визгунов) + Original

Статистика раздачи
Размер:  1,46 GB   |    Зарегистрирован:  1 месяц 24 дня   |    Скачан:  3 раза

Полного источника не было: 5 часов

Сидов:  0  |  0 KB/s  ]   Личеров:  0  |  0 KB/s  ]

* - сиды/пиры с внешних источников

   
 
Автор Сообщение

makkol Пол:Муж

14-Окт-2016 13:46

Тень внутри / The Shadow Within


Год выпуска: 2007
Жанр: ужасы, триллер
Производство: Италия [The Shadow Within Films, Pixeldna, Wee Dram Productions, Imageworks Entertainment International]
Режиссер: Сильвана Дзанколо
В ролях: Лоуренс Белчер, Хейли Дж Уильямс, Бет Уинслет, Род Халлетт, Бонни Амброзе, Белинда Питерс, Лэйси Бонд, Джорджия Митчелл, Питер Шеперд, Лионнелло Дженнеро
Сюжет фильма:
Морис Дюмон - мальчик, способный общаться с мёртвыми. Мари, его мать, попадает под влияние мадам Арман, которая убеждает её заставить своего сына быть посредником с потусторонним миром...

  • Мировая премьера: 25 октября 2007


Качество видео: DVDRip

Продолжительность: 01:30:18
Формат: AVI
Видео: XviD, 720x400 (16:9), 29.970 fps, 1407 kbps
Аудио #1: русский, авторский одноголосый закадровый (Сергей Визгунов), AC3 5.1, 48 kHz, 448 kbps
Аудио #2: английский, оригинал, AC3 5.1, 48 kHz, 448 kbps

Код:

Формат                                   : AVI
Формат/Информация                        : Audio Video Interleave
Размер файла                             : 1,46 Гбайт
Продолжительность                        : 1 ч. 30 м.
Общий поток                              : 2313 Кбит/сек
Программа кодирования                    : VirtualDubMod 1.5.4.1 (build 2178/release)
Библиотека кодирования                   : VirtualDubMod build 2178/release

Видео
Идентификатор                            : 0
Формат                                   : MPEG-4 Visual
Профиль формата                          : Advanced Simple@L5
Параметр BVOP формата                    : 1
Параметр QPel формата                    : Нет
Параметр GMC формата                     : Без точки перехода
Параметр матрицы формата                 : Выборочная
Идентификатор кодека                     : XVID
Идентификатор кодека/Подсказка           : XviD
Продолжительность                        : 1 ч. 30 м.
Битрейт                                  : 1407 Кбит/сек
Ширина                                   : 720 пикселей
Высота                                   : 400 пикселей
Соотношение сторон                       : 16:9
Частота кадров                           : 29,970 кадров/сек
Цветовое пространство                    : YUV
Субдискретизация насыщенности            : 4:2:0
Битовая глубина                          : 8 бит
Тип развёртки                            : Прогрессивная
Метод сжатия                             : С потерями
Бит/(Пиксели*Кадры)                      : 0.163
Размер потока                            : 909 Мбайт (61%)
Библиотека кодирования                   : XviD 64

Аудио #1
Идентификатор                            : 1
Формат                                   : AC-3
Формат/Информация                        : Audio Coding 3
Расширение режима                        : CM (complete main)
Параметр Endianness формата              : Big
Идентификатор кодека                     : 2000
Продолжительность                        : 1 ч. 30 м.
Вид битрейта                             : Постоянный
Битрейт                                  : 448 Кбит/сек
Каналы                                   : 6 каналов
Расположение каналов                     : Front: L C R, Side: L R, LFE
Частота                                  : 48,0 КГц
Метод сжатия                             : С потерями
Размер потока                            : 289 Мбайт (19%)
Выравнивание                             : Разделение по промежуткам
Продолжительность промежутка             : 96  мс. (2,88 видеокадра)
Время предзагрузки промежутка            : 96  мс.
Язык                                     : Russian

Аудио #2
Идентификатор                            : 2
Формат                                   : AC-3
Формат/Информация                        : Audio Coding 3
Расширение режима                        : CM (complete main)
Параметр Endianness формата              : Big
Идентификатор кодека                     : 2000
Продолжительность                        : 1 ч. 30 м.
Вид битрейта                             : Постоянный
Битрейт                                  : 448 Кбит/сек
Каналы                                   : 6 каналов
Расположение каналов                     : Front: L C R, Side: L R, LFE
Частота                                  : 48,0 КГц
Метод сжатия                             : С потерями
Размер потока                            : 289 Мбайт (19%)
Выравнивание                             : Разделение по промежуткам
Продолжительность промежутка             : 96  мс. (2,88 видеокадра)
Время предзагрузки промежутка            : 96  мс.
Язык                                     : English
picpicpicpicpic
Для увеличения картинки щелкните мышкой по превью

Этот торрент недоступен для скачивания без регистрации, однако доступен по публичной magnet-ссылке (источники с публичных трекеров). Перед использованием ссылки прочтите, пожалуйста Пользовательское соглашение, а также как можно дольше оставайтесь на раздаче! Для того, чтобы скачать сам торрент-файл (который видит больше источников), а также для того, чтобы поблагодарить релизера, вам необходимо зарегистрироваться. Если регистрироваться лень - вы можете также попробовать скачать релиз по нашим партнерским ссылкам ниже.

[underverse.su].t71057.torrent
Трекер: Зарегистрирован   [ 14.10.2016 13:46 ]  

Статус: проверено (by makkol at 19.10.2016 21:53)
Поблагодарили: пока никто не поблагодарил...
Тип торрента: публичный - доступные источники с открытых трекеров: 
Размер: 1,46 GB (занимает 1/3 DVDR, для записи нужно 1 болванка DVDR/RW)
 
 

Яндекс.Метрика powered by Sphinx


В Н И М А Н И Е
Сайт не распространяет и не хранит электронные версии произведений, а лишь бесплатно и без коммерческой выгоды (не требуя взамен платы,
SMS и т.д.) предоставляет доступ к создаваемому пользователями каталогу ссылок на торрент-файлы, которые содержат только списки хеш-сумм.
Убедительная просьба с жалобами обращаться напрямую к пользователю, разместившему торрент файл.

Вверх