Loading...
Error

Наследие Викингов / Viking Legacy (Том Баркер) [2016 г., боевик, приключения, HDRip] MVO

Статистика раздачи
Размер:  1,37 GB   |    Зарегистрирован:  1 месяц 24 дня   |    Скачан:  29 раз

Полного источника не было: 10 часов

Сидов:  0  |  0 KB/s  ]   Личеров:  0  |  0 KB/s  ]

* - сиды/пиры с внешних источников

   
 
Автор Сообщение

makkol Пол:Муж

13-Окт-2016 22:02

Наследие Викингов / Viking Legacy


Год выпуска: 2016
Жанр: боевик, приключения
Производство: Великобритания [Viking Legacy]
Режиссер: Том Баркер
В ролях: Холи Берроуз, Джеймс Кук, Лиам Драскобе, Дарен Эллиот Холмс, Eirian Эванс, Марк Фрай, Джулиан Гиллард, Нил Харрис, Эбби Хирст
Сюжет фильма:
В древности было семь священных свитков, которые по преданию давали силу и процветание их обладателям. Пророчество гласит, что одному ребенку чистых королевских кровей удастся однажды овладеть всей могучей силой священных свитков и встать во главе всех народов! В бесконечной борьбе за обладание свитками Европа оказалась на грани войны. Дабы мир был сохранен, кельтский король отдал эти свитки на хранение Христианскому Совету. Однако когда весть о поступке короля облетела мир, один из полководцев, жаждущих силы свитков, подло и хладнокровно убил короля. Дочь короля была спрятана вслед за свитками до того дня, пока пророчество не сбудется...

  • Мировая премьера: 19 сентября 2016


Качество видео: HDRip

Продолжительность: 01:19:42
Формат: AVI
Видео: XviD, 720x304 (2.35:1), 25.000 fps, 1996 kbps
Аудио: русский, любительский многоголосый закадровый (Синема УС), AC3 2.0, 48 kHz, 448 kbps

Код:

Format : AVI
Format/Info : Audio Video Interleave
File size : 1.37 GiB
Duration : 1 h 19 min
Overall bit rate : 2 455 kb/s
Writing application : VirtualDubMod 1.5.10.2 (build 2540/release)
Writing library : VirtualDubMod build 2540/release

Video
ID : 0
Format : MPEG-4 Visual
Format profile : Advanced Simple@L5
Format settings, BVOP : 2
Format settings, QPel : No
Format settings, GMC : No warppoints
Format settings, Matrix : Default (MPEG)
Codec ID : XVID
Codec ID/Hint : XviD
Duration : 1 h 19 min
Bit rate : 1 997 kb/s
Width : 720 pixels
Height : 304 pixels
Display aspect ratio : 2.35:1
Frame rate : 25.000 FPS
Color space : YUV
Chroma subsampling : 4:2:0
Bit depth : 8 bits
Scan type : Progressive
Compression mode : Lossy
Bits/(Pixel*Frame) : 0.365
Stream size : 1.11 GiB (81%)
Writing library : XviD 1.2.1 (UTC 2008-12-04)

Audio
ID : 1
Format : AC-3
Format/Info : Audio Coding 3
Mode extension : CM (complete main)
Format settings, Endianness : Big
Codec ID : 2000
Duration : 1 h 19 min
Bit rate mode : Constant
Bit rate : 448 kb/s
Channel(s) : 2 channels
Channel positions : Front: L R
Sampling rate : 48.0 kHz
Frame rate : 31.250 FPS (1536 spf)
Compression mode : Lossy
Stream size : 255 MiB (18%)
Alignment : Split accross interleaves
Interleave, duration : 40 ms (1.00 video frame)
Interleave, preload duration : 500 ms


picpicpicpicpic
Для увеличения картинки щелкните мышкой по превью

Этот торрент недоступен для скачивания без регистрации, однако доступен по публичной magnet-ссылке (источники с публичных трекеров). Перед использованием ссылки прочтите, пожалуйста Пользовательское соглашение, а также как можно дольше оставайтесь на раздаче! Для того, чтобы скачать сам торрент-файл (который видит больше источников), а также для того, чтобы поблагодарить релизера, вам необходимо зарегистрироваться. Если регистрироваться лень - вы можете также попробовать скачать релиз по нашим партнерским ссылкам ниже.

[underverse.su].t71051.torrent
Трекер: Зарегистрирован   [ 13.10.2016 22:02 ]  

Статус: T временная (by makkol at 19.10.2016 21:50)
Поблагодарили: пока никто не поблагодарил...
Тип торрента: публичный - доступные источники с открытых трекеров: 
Размер: 1,37 GB (занимает 0,31 DVDR, для записи нужно 1 болванка DVDR/RW)
 
 
Похожие темы
Форум Тема Автор Торрент Отв. Посл. сооб.
Исторические фильмы Наследие В.И. Ленина [2014 г., документальный, HDTVRip] матроскин
1 | 0

1 | 479

5

01.02.2015 13:30

T Зарубежное кино [HDDVDRip / BDRip / WEB-DL / HDTV 1080/720р] Наследие викингов / Viking Legacy (Том Баркер / Tom Barker, Виктор Мауер / Victor Mawer) [2016 г., боевик, приключения, BDRip 720p] MVO (Синема УС) 90ytr90
203 | 15

0 | 232

5

14.10.2016 18:49

T Зарубежное кино [HDDVDRip / BDRip / WEB-DL / HDTV 1080/720р] Наследие Викингов / Viking Legacy (Том Баркер) [2016 г., боевик, приключения, BDRip 1080p] MVO makkol
4 | 4

0 | 194

16

13.10.2016 22:09

Релизы Наследие ведьм 3: Охотник и добыча / Witches Legacy 3: Hunter and the Hunted Collector's Edition [2015 г., Квест, Поиск Предметов] RUS [P] Станислав Карбанович
24 | 0

0 | 745

21

05.08.2015 14:32


Яндекс.Метрика powered by Sphinx


В Н И М А Н И Е
Сайт не распространяет и не хранит электронные версии произведений, а лишь бесплатно и без коммерческой выгоды (не требуя взамен платы,
SMS и т.д.) предоставляет доступ к создаваемому пользователями каталогу ссылок на торрент-файлы, которые содержат только списки хеш-сумм.
Убедительная просьба с жалобами обращаться напрямую к пользователю, разместившему торрент файл.

Вверх