Loading...
Error

Отряд самоубийц / Suicide Squad (Дэвид Эйр) [2016 г., фантастика, боевик, триллер, комедия, криминал, приключения, WEBRip] Dub (Line)

Статистика раздачи
Размер:  1,37 GB   |    Зарегистрирован:  1 месяц 21 день   |    Скачан:  61 раз
Сидов:  1  |  2 KB/s  ]   Личеров:  0  |  0 KB/s  ]

* - сиды/пиры с внешних источников

   
 
Автор Сообщение

makkol Пол:Муж

13-Окт-2016 12:26

Отряд самоубийц / Suicide Squad


Год выпуска: 2016
Жанр: фантастика, боевик, триллер, комедия, криминал, приключения
Производство: США [DC Comics, Warner Bros. Pictures]
Режиссер: Дэвид Эйр
В ролях: Марго Робби, Уилл Смит, Джаред Лето, Джай Кортни, Кара Делевинь, Джей Эрнандес, Юэль Киннаман, Виола Дэвис, Адевале Акинойе-Агбаже, Скотт Иствуд
Сюжет фильма:
Однажды директорше Агентства Национальной Безопасности привиделся жуткий кошмар – Супермену надоело летать над крышами небоскребов и вечно спасать мир. Когда Супермен бросил это позорное занятие, то явился в Белый Дом, выгнал оттуда к чертовой бабушке президента, сел в кресло в Овальном кабинете и заявил: «Этот домик мой немножко будет». Проснулась директорша в холодном поту и возопила – кто, кто спасет нас от съехавших с катушек супергероев? Ну конечно, только «Отряд Х» – отмороженная бригада из суперзлодеев, мотающих срок по тюрьмам да по темницам. И в самом деле – случись что, так их не жалко, а выйдут они из-под контроля, так у каждого на этот случай вживленная бомба имеется. И только этот бравый отряд успели собрать, как тут же во мрачном подземелье обнаружился древний злобный бог, решивший без шума и пыли весь мир к своим грязным лапам прибрать.

  • Мировая премьера: 1 августа 2016
  • Российская премьера: 4 августа 2016


Качество видео: WEBRip

Продолжительность: 02:02:23
Формат: AVI
Видео: XviD, 720x304 (2.35:1), 29.970 fps, 1395 kbps
Аудио: русский, дублированный (чистый звук), AC3 2.0, 48 kHz, 192 kbps
Субтитры: корейские вшитые неотключаемые

Код:

Формат                                   : AVI
Формат/Информация                        : Audio Video Interleave
Размер файла                             : 1,37 Гбайт
Продолжительность                        : 2 ч. 2 м.
Общий поток                              : 1599 Кбит/сек
Программа кодирования                    : VirtualDubMod 1.5.10.2 (build 2540/release)
Библиотека кодирования                   : VirtualDubMod build 2540/release

Видео
Идентификатор                            : 0
Формат                                   : MPEG-4 Visual
Профиль формата                          : Advanced Simple@L5
Параметр BVOP формата                    : 2
Параметр QPel формата                    : Нет
Параметр GMC формата                     : Без точки перехода
Параметр матрицы формата                 : Выборочная
Идентификатор кодека                     : XVID
Идентификатор кодека/Подсказка           : XviD
Продолжительность                        : 2 ч. 2 м.
Битрейт                                  : 1395 Кбит/сек
Ширина                                   : 720 пикселей
Высота                                   : 304 пикселя
Соотношение сторон                       : 2,35:1
Частота кадров                           : 29,970 кадров/сек
Цветовое пространство                    : YUV
Субдискретизация насыщенности            : 4:2:0
Битовая глубина                          : 8 бит
Тип развёртки                            : Прогрессивная
Метод сжатия                             : С потерями
Бит/(Пиксели*Кадры)                      : 0.213
Размер потока                            : 1,19 Гбайт (87%)
Библиотека кодирования                   : XviD 1.2.1 (UTC 2008-12-04)

Аудио
Идентификатор                            : 1
Формат                                   : AC-3
Формат/Информация                        : Audio Coding 3
Расширение режима                        : CM (complete main)
Параметр Endianness формата              : Big
Идентификатор кодека                     : 2000
Продолжительность                        : 2 ч. 2 м.
Вид битрейта                             : Постоянный
Битрейт                                  : 192 Кбит/сек
Каналы                                   : 2 канала
Расположение каналов                     : Front: L R
Частота                                  : 48,0 КГц
Битовая глубина                          : 16 бит
Метод сжатия                             : С потерями
Размер потока                            : 168 Мбайт (12%)
Выравнивание                             : Разделение по промежуткам
Продолжительность промежутка             : 33  мс. (1,00 видеокадр)
Время предзагрузки промежутка            : 500  мс.


picpicpicpicpic
Для увеличения картинки щелкните мышкой по превью

Этот торрент недоступен для скачивания без регистрации, однако доступен по публичной magnet-ссылке (источники с публичных трекеров). Перед использованием ссылки прочтите, пожалуйста Пользовательское соглашение, а также как можно дольше оставайтесь на раздаче! Для того, чтобы скачать сам торрент-файл (который видит больше источников), а также для того, чтобы поблагодарить релизера, вам необходимо зарегистрироваться. Если регистрироваться лень - вы можете также попробовать скачать релиз по нашим партнерским ссылкам ниже.

[underverse.su].t71028.torrent
Трекер: Зарегистрирован   [ 13.10.2016 12:26 ]  

Статус: T временная (by Паукан at 13.10.2016 12:46)
Поблагодарили: 1 человек
Тип торрента: публичный - доступные источники с открытых трекеров: 
Размер: 1,37 GB (занимает 0,31 DVDR, для записи нужно 1 болванка DVDR/RW)
 
 
Похожие темы
Форум Тема Автор Торрент Отв. Посл. сооб.
Зарубежное кино [DVDRip, Low-Res HDRip, и т.д.] Отряд самоубийц / Suicide Squad (Дэвид Эйр / David Ayer) [2016 г., фантастика, фэнтези, боевик, приключения, BDRip] [Theatrical Cut] Dub + hardsub (Rus) 90ytr90
100 | 18

0 | 285

5

01.12.2016 21:00

Зарубежное кино [DVDRip, Low-Res HDRip, и т.д.] Отряд самоубийц / Suicide Squad (Дэвид Эйр / David Ayer) [2016 г., фантастика, фэнтези, боевик, приключения, BDRip] [Theatrical Cut] Dub + hardsub (Rus) 90ytr90
174 | 21

0 | 317

3

01.12.2016 17:15

Зарубежное кино [DVDRip, Low-Res HDRip, и т.д.] Отряд самоубийц / Suicide Squad (Дэвид Эйр / David Ayer) [2016 г., фантастика, фэнтези, боевик, приключения, BDRip] [Extended Cut] Dub/AVO + Sub (Rus) 90ytr90
154 | 15

0 | 219

4

30.11.2016 16:21

Зарубежное кино [DVDRip, Low-Res HDRip, и т.д.] Отряд самоубийц / Suicide Squad (Дэвид Эйр / David Ayer) [2016 г., фантастика, фэнтези, боевик, приключения, HDRip] [Extended Cut] AVO (Матвеев) + Sub (Rus) 90ytr90
48 | 7

0 | 282

1

29.11.2016 18:30

Зарубежное кино [DVDRip, Low-Res HDRip, и т.д.] Отряд самоубийц / Suicide Squad (Дэвид Эйр / David Ayer) [2016 г., фантастика, фэнтези, боевик, приключения, HDRip] [Extended Cut] AVO (Матвеев) + Sub (Rus) 90ytr90
29 | 8

0 | 274

2

29.11.2016 18:26

Зарубежное кино [DVDRip, Low-Res HDRip, и т.д.] Отряд самоубийц / Suicide Squad (Дэвид Эйр / David Ayer) [2016 г., фантастика, фэнтези, боевик, приключения, WEB-DLRip] [Extended Cut] AVO (Матвеев) + Sub (Rus) 90ytr90
257 | 9

0 | 405

7

22.11.2016 18:02

Зарубежное кино [DVDRip, Low-Res HDRip, и т.д.] Отряд самоубийц / Suicide Squad (Дэвид Эйр / David Ayer) [2016 г., фантастика, фэнтези, боевик, приключения, WEB-DLRip] [Extended Cut] AVO (Матвеев) + Sub (Rus) 90ytr90
82 | 3

0 | 253

4

21.11.2016 20:31

Зарубежное кино [DVDRip, Low-Res HDRip, и т.д.] Отряд самоубийц / Suicide Squad (Дэвид Эйр / David Ayer) [2016 г., фантастика, фэнтези, боевик, приключения, WEB-DLRip] AVO (Матвеев) + Sub (Rus) 90ytr90
42 | 3

0 | 208

6

18.11.2016 13:47

T Зарубежное кино [DVDRip, Low-Res HDRip, и т.д.] Отряд самоубийц / Suicide Squad (Дэвид Эйр / David Ayer) [2016 г., фантастика, фэнтези, боевик, приключения, WEB-DLRip] [Theatrical Cut] Dub (iTunes) 90ytr90
571 | 6

0 | 368

10

16.11.2016 19:35

T Зарубежное кино [DVDRip, Low-Res HDRip, и т.д.] Отряд самоубийц / Suicide Squad (Дэвид Эйр / David Ayer) [2016 г., фантастика, фэнтези, боевик, приключения, WEB-DLRip-AVC] [Theatrical Cut] Dub (Rus.iTunes) + Dub (Ukr.iTunes) + Original (Eng) +... 90ytr90
111 | 3

1 | 141

7

16.11.2016 11:34

makkol Пол:Муж

13-Окт-2016 12:42

Насчёт чистого звука имеется сомнение, но так он обозван в сети.

Яндекс.Метрика powered by Sphinx


В Н И М А Н И Е
Сайт не распространяет и не хранит электронные версии произведений, а лишь бесплатно и без коммерческой выгоды (не требуя взамен платы,
SMS и т.д.) предоставляет доступ к создаваемому пользователями каталогу ссылок на торрент-файлы, которые содержат только списки хеш-сумм.
Убедительная просьба с жалобами обращаться напрямую к пользователю, разместившему торрент файл.

Вверх