Loading...
Error

Ада Лавлейс: первая леди программирования / Calculating Ada: The Countess of Computing (Нат Шарман) [2015 г., документальный, научно-популярный, математика, HDTVRip 720p] DVO (Da Vinci Learning)

Статистика раздачи
Размер:  1,79 GB   |    Зарегистрирован:  1 месяц 26 дней   |    Скачан:  1 раз

Полного источника не было: 1 месяц 25 дней

Сидов:  0  |  0 KB/s  ]   Личеров:  0  |  0 KB/s  ]

* - сиды/пиры с внешних источников

   
 
Автор Сообщение

ARI71 Пол:Муж

13-Окт-2016 12:17

Ада Лавлейс: первая леди программирования / Calculating Ada: The Countess of Computing


Год выпуска: 2015
Жанр: документальный, научно-популярный, математика
Страна: Великобритания BBC Scotland Science Production, The Open University Partnership
Режиссер: Нат Шарман
Ведущая: - математик, Ханна Фрай
Сюжет фильма:
10 декабря названо Днем программиста в честь родившейся также в этот день первой представительницы этой, сравнительно "молодой", профессии Ады Августы Лавлейс, единственной дочери прославленного английского поэта Джорджа Гордона Байрона и его супруги Аннабеллы Милбэнк. Возможно Вы думали, что у истоков компьютерной эры стояли ученые-энтузиасты из Калифорнии или шифровальщики времен Второй мировой войны? Однако, первопроходец, прежде всех осознавший истинный потенциал компьютеров, жил гораздо раньше, в эпоху промышленной революции, когда мир стремительно менялся. Этот фильм рассказывает о неординарной и увлекательной жизни Ады Лавлейс - первого в мире программиста - и о том, как ее неповторимые качества - живое воображение и безупречная логика - сделали ее провозвестником нашей цифровой эпохи.

Авгу́ста А́да Кинг (урождённая Ба́йрон), графиня Ла́влейс (англ. Augusta Ada King Byron, Countess of Lovelace), более известная как Ада Лавлейс (10 декабря 1815, Лондон, Великобритания — 27 ноября 1852, Лондон) — математик. Известна прежде всего созданием описания вычислительной машины, проект которой был разработан Чарльзом Бэббиджем. Составила первую в мире программу (для этой машины). Ввела в употребление термины «цикл» и «рабочая ячейка», считается первым программистом в истории.
Качество видео: HDTVRip 720p

Продолжительность: 00:58:33
Формат: MKV
Видео: AVC (x264), 1280x720, 4000 kbps
Аудио #1: русский, двухголосый закадровый [профессиональный, Da Vinci Learning], AC3 2.0, 192.00 kbps
Аудио #2: английский, [оригинал], AC3 2.0, 192.00 kbps

Автор рипа: skorpionN

Код:

Общее
Уникальный идентификатор : 171970490823742593036600636060098049529 (0x81604FD100143911A0C2EE6DB21F35F9)
Полное имя : D:\BBC_Calculating Ada_The Countess of Computing_720p.mkv
Формат : Matroska
Версия формата : Version 4 / Version 2
Размер файла : 1,79 Гбайт
Продолжительность : 58 м.
Режим общего битрейта : Переменный
Общий поток : 4383 Кбит/сек
Дата кодирования : UTC 2016-10-12 07:52:16
Программа кодирования : mkvmerge v7.3.0 ('Nouages') 64bit built on Oct 22 2014 18:53:34
Библиотека кодирования : libebml v1.3.0 + libmatroska v1.4.1

Видео
Идентификатор : 1
Формат : AVC
Формат/Информация : Advanced Video Codec
Профиль формата : High@L4.1
Параметр CABAC формата : Да
Параметр ReFrames формата : 3 кадра
Идентификатор кодека : V_MPEG4/ISO/AVC
Продолжительность : 58 м.
Вид битрейта : Переменный
Битрейт : 4000 Кбит/сек
Максимальный битрейт : 8000 Кбит/сек
Ширина : 1280 пикселей
Высота : 720 пикселей
Соотношение сторон : 16:9
Режим частоты кадров : Постоянный
Частота кадров : 25,000 кадров/сек
Стандарт вещания : NTSC
Цветовое пространство : YUV
Субдискретизация насыщенности : 4:2:0
Битовая глубина : 8 бит
Тип развёртки : Прогрессивная
Бит/(Пиксели*Кадры) : 0.174
Размер потока : 1,63 Гбайт (91%)
Библиотека кодирования : x264 core 114
Настройки программы : cabac=1 / ref=3 / deblock=1:0:0 / analyse=0x3:0x113 / me=hex / subme=7 / psy=1 / psy_rd=1.00:0.00 / mixed_ref=1 / me_range=16 / chroma_me=1 / trellis=1 / 8x8dct=1 / cqm=2 / deadzone=21,11 / fast_pskip=1 / chroma_qp_offset=-4 / threads=6 / sliced_threads=0 / slices=1 / nr=0 / decimate=1 / interlaced=0 / constrained_intra=0 / bframes=3 / b_pyramid=0 / b_adapt=1 / b_bias=0 / direct=1 / weightb=1 / open_gop=0 / weightp=2 / keyint=250 / keyint_min=25 / scenecut=40 / intra_refresh=0 / rc_lookahead=40 / rc=2pass / mbtree=1 / bitrate=4000 / ratetol=1.0 / qcomp=0.60 / qpmin=5 / qpmax=69 / qpstep=4 / cplxblur=20.0 / qblur=0.5 / vbv_maxrate=8000 / vbv_bufsize=7995 / nal_hrd=vbr / ip_ratio=1.40 / aq=1:1.00
Default : Да
Forced : Нет
Цветовой диапазон : Limited
Основные цвета : BT.709
Характеристики трансфера : BT.709
Коэффициенты матрицы : BT.709

Аудио #1
Идентификатор : 2
Формат : AC-3
Формат/Информация : Audio Coding 3
Расширение режима : CM (complete main)
Параметр Endianness формата : Big
Идентификатор кодека : A_AC3
Продолжительность : 58 м.
Вид битрейта : Постоянный
Битрейт : 192 Кбит/сек
Каналы : 2 канала
Расположение каналов : Front: L R
Частота : 48,0 КГц
Частота кадров : 31,250 кадров/сек (1536 spf)
Метод сжатия : С потерями
Размер потока : 80,4 Мбайт (4%)
Язык : Russian
Default : Да
Forced : Нет

Аудио #2
Идентификатор : 3
Формат : AC-3
Формат/Информация : Audio Coding 3
Расширение режима : CM (complete main)
Параметр Endianness формата : Big
Идентификатор кодека : A_AC3
Продолжительность : 58 м.
Вид битрейта : Постоянный
Битрейт : 192 Кбит/сек
Каналы : 2 канала
Расположение каналов : Front: L R
Частота : 48,0 КГц
Частота кадров : 31,250 кадров/сек (1536 spf)
Метод сжатия : С потерями
Размер потока : 80,4 Мбайт (4%)
Язык : English
Default : Нет
Forced : Да
picpicpicpicpic
Для увеличения картинки щелкните мышкой по превью

Этот торрент недоступен для скачивания без регистрации, однако доступен по публичной magnet-ссылке (источники с публичных трекеров). Перед использованием ссылки прочтите, пожалуйста Пользовательское соглашение, а также как можно дольше оставайтесь на раздаче! Для того, чтобы скачать сам торрент-файл (который видит больше источников), а также для того, чтобы поблагодарить релизера, вам необходимо зарегистрироваться. Если регистрироваться лень - вы можете также попробовать скачать релиз по нашим партнерским ссылкам ниже.

[underverse.su].t71027.torrent
Трекер: Зарегистрирован   [ 13.10.2016 12:17 ]  

Статус: проверено (by ARI71 at 13.10.2016 12:23)
Поблагодарили: пока никто не поблагодарил...
Тип торрента: публичный - доступные источники с открытых трекеров: 
Размер: 1,79 GB (занимает 0,41 DVDR, для записи нужно 1 болванка DVDR/RW)
 
 
Похожие темы
Форум Тема Автор Торрент Отв. Посл. сооб.
BBC Ада Лавлейс: первая леди программирования / Calculating Ada: The Countess of Computing (Нат Шарман) [2015 г., документальный, научно-популярный, математика, HDTVRip] DVO (Da Vinci Learning) ARI71
26 | 1

1 | 228

0

16.10.2016 12:05

ARI71 Пол:Муж

13-Окт-2016 12:18

Приятного всем просмотра!

Голосуй за трекер!!




Яндекс.Метрика powered by Sphinx


В Н И М А Н И Е
Сайт не распространяет и не хранит электронные версии произведений, а лишь бесплатно и без коммерческой выгоды (не требуя взамен платы,
SMS и т.д.) предоставляет доступ к создаваемому пользователями каталогу ссылок на торрент-файлы, которые содержат только списки хеш-сумм.
Убедительная просьба с жалобами обращаться напрямую к пользователю, разместившему торрент файл.

Вверх