Loading...
Error

Жених (Александр Незлобин) [2016 г., комедия, WEB-DLRip] Rus (iTunes)

Статистика раздачи
Размер:  1,37 GB   |    Зарегистрирован:  1 месяц 28 дней   |    Скачан:  64 раза
Сидов:  3  |  22 KB/s  ]   Личеров:  0  |  0 KB/s  ]

* - сиды/пиры с внешних источников

   
 
Автор Сообщение

makkol Пол:Муж

13-Окт-2016 11:13

Жених
«У моей жены есть жених...»


Год выпуска: 2016
Жанр: комедия
Производство: Россия [Solaris Promo Production, ТНТ]
Режиссер: Александр Незлобин
В ролях: Сергей Светлаков, Светлана Смирнова-Марцинкевич, Филипп Рейнхардт, Ольга Картункова, Дмитрий Никулин, Наталья Паршенкова, Сергей Бурунов, Александр Демидов, Георгий Дронов, Тимофей Зайцев
Сюжет фильма:
Немец Гельмут приезжает в Россию, чтобы сделать предложение русской красавице Алене, с которой они познакомились в Берлине. Счастливая пара едет в деревню — знакомиться с родственниками невесты. Однако туда же приезжает и бывший муж Алены — Толя, который неожиданно решил вернуть жену. Все оборачивается романтическим соперничеством, в которое кроме Толи и Гельмута, вмешиваются их друзья, родственники, а также другие жители деревни — бизнесмен Ерофеев, купивший дом по соседству, заблудившийся танкист и даже змея.

  • Российская премьера: 15 сентября 2016


Качество видео: WEB-DLRip

Продолжительность: 01:28:30
Формат: AVI
Видео: XviD, 720x400 (16:9), 25.000 fps, 1818 kbps
Аудио: русский, оригинал (iTunes), AC3 2.0, 48 kHz, 384 kbps

Код:

Формат                                   : AVI
Формат/Информация                        : Audio Video Interleave
Размер файла                             : 1,37 Гбайт
Продолжительность                        : 1 ч. 28 м.
Общий поток                              : 2211 Кбит/сек
Название фильма                          : CheniX.WEB-DLRip.O.1400Mb_KOSHARA
Режиссёр                                 : KOSHARA
Программа кодирования                    : VirtualDubMod 1.5.10.2 (build 2540/release)

Видео
Идентификатор                            : 0
Формат                                   : MPEG-4 Visual
Профиль формата                          : Advanced Simple@L5
Параметр BVOP формата                    : 2
Параметр QPel формата                    : Нет
Параметр GMC формата                     : Без точки перехода
Параметр матрицы формата                 : Default (MPEG)
Идентификатор кодека                     : XVID
Идентификатор кодека/Подсказка           : XviD
Продолжительность                        : 1 ч. 28 м.
Битрейт                                  : 1818 Кбит/сек
Ширина                                   : 720 пикселей
Высота                                   : 400 пикселей
Соотношение сторон                       : 16:9
Частота кадров                           : 25,000 кадров/сек
Цветовое пространство                    : YUV
Субдискретизация насыщенности            : 4:2:0
Битовая глубина                          : 8 бит
Тип развёртки                            : Прогрессивная
Метод сжатия                             : С потерями
Бит/(Пиксели*Кадры)                      : 0.252
Размер потока                            : 1,12 Гбайт (82%)
Библиотека кодирования                   : XviD 1.2.1 (UTC 2008-12-04)

Аудио
Идентификатор                            : 1
Формат                                   : AC-3
Формат/Информация                        : Audio Coding 3
Расширение режима                        : CM (complete main)
Параметр Endianness формата              : Big
Идентификатор кодека                     : 2000
Продолжительность                        : 1 ч. 28 м.
Вид битрейта                             : Постоянный
Битрейт                                  : 384 Кбит/сек
Каналы                                   : 2 канала
Расположение каналов                     : Front: L R
Частота                                  : 48,0 КГц
Метод сжатия                             : С потерями
Размер потока                            : 243 Мбайт (17%)
Выравнивание                             : Разделение по промежуткам
Продолжительность промежутка             : 40  мс. (1,00 видеокадр)
Время предзагрузки промежутка            : 500  мс.


picpicpicpicpic
Для увеличения картинки щелкните мышкой по превью

Этот торрент недоступен для скачивания без регистрации, однако доступен по публичной magnet-ссылке (источники с публичных трекеров). Перед использованием ссылки прочтите, пожалуйста Пользовательское соглашение, а также как можно дольше оставайтесь на раздаче! Для того, чтобы скачать сам торрент-файл (который видит больше источников), а также для того, чтобы поблагодарить релизера, вам необходимо зарегистрироваться. Если регистрироваться лень - вы можете также попробовать скачать релиз по нашим партнерским ссылкам ниже.

[underverse.su].t71022.torrent
Трекер: Зарегистрирован   [ 13.10.2016 11:13 ]  

Статус: T временная (by makkol at 13.10.2016 13:25)
Поблагодарили: 1 человек
Тип торрента: публичный - доступные источники с открытых трекеров: 
Размер: 1,37 GB (занимает 0,31 DVDR, для записи нужно 1 болванка DVDR/RW)
 
 
Похожие темы
Форум Тема Автор Торрент Отв. Посл. сооб.
Наше кино [DVDRip, Low-Res HDRip, и т.д.] Жених (Александр Незлобин) [2016 г., комедия, BDRip-AVC] 90ytr90
1856 | 86

0 | 128

5

19.11.2016 12:08

Наше кино [DVDRip, Low-Res HDRip, и т.д.] Жених (Александр Незлобин) [2016 г., комедия, HDRip] 90ytr90
183 | 3

0 | 373

11

28.10.2016 14:38

Наше кино [DVDRip, Low-Res HDRip, и т.д.] Жених (Александр Незлобин) [2016 г., комедия, HDRip] 90ytr90
10048 | 408

0 | 440

41

28.10.2016 14:20

Наше кино [HDDVDRip / BDRip / WEB-DL / HDTV 1080/720р] Жених (Александр Незлобин) [2016 г., комедия, BDRip 1080p] 90ytr90
402 | 21

0 | 348

8

28.10.2016 14:34

Наше кино [HDDVDRip / BDRip / WEB-DL / HDTV 1080/720р] Жених (Александр Незлобин) [2016 г., комедия, BDRip 720p] 90ytr90
530 | 8

0 | 342

11

28.10.2016 14:28

T Наше кино [HDDVDRip / BDRip / WEB-DL / HDTV 1080/720р] Жених (Александр Незлобин) [2016 г., комедия, WEB-DL 1080p] Rus (iTunes) makkol
1176 | 7

0 | 398

59

13.10.2016 11:26


Яндекс.Метрика powered by Sphinx


В Н И М А Н И Е
Сайт не распространяет и не хранит электронные версии произведений, а лишь бесплатно и без коммерческой выгоды (не требуя взамен платы,
SMS и т.д.) предоставляет доступ к создаваемому пользователями каталогу ссылок на торрент-файлы, которые содержат только списки хеш-сумм.
Убедительная просьба с жалобами обращаться напрямую к пользователю, разместившему торрент файл.

Вверх