Loading...
Error

Она / Elle (Пол Верховен) [2016 г., триллер, драма, HDRip] Dub (Line)

Статистика раздачи
Размер:  1,37 GB   |    Зарегистрирован:  1 месяц 25 дней   |    Скачан:  32 раза
Сидов:  3  |  0,1 KB/s  ]   Личеров:  0  |  0 KB/s  ]

* - сиды/пиры с внешних источников

   
 
Автор Сообщение

makkol Пол:Муж

10-Окт-2016 21:49

Она / Elle


Год выпуска: 2016
Жанр: триллер, драма
Производство: Франция , Германия , Бельгия [Canal+ [fr], Casa Kafka Pictures]
Режиссер: Пол Верховен
В ролях: Изабель Юппер, Лоран Лафитт, Анн Консиньи, Шарль Берлинг, Виржини Эфира, Жюдит Магр, Кристиан Беркель, Йонас Блоке, Алис Исааз, Вимала Понс
Сюжет фильма:
Мишель, состоятельная парижанка, владелица крупной компании по разработке видеоигр, с мужем в разводе, у сына своя, взрослая, жизнь. А у Мишель необременительный роман с мужем подруги. Однажды в ее дом врывается мужчина в черном, жестоко избивает ее и насилует. Когда он исчезает, Мишель не заявляет в полицию. Страшная история пробуждает в ней детские психологические травмы и скрытые инстинкты, связанные с ее отцом, серийным убийцей. С этого момента она в каждом мужчине из своего окружения начинает видеть насильника. Она хочет найти его, но вовсе не для того, чтобы сдать полиции...

  • Мировая премьера: 21 мая 2016
  • Российская премьера: 22 сентября 2016


Качество видео: HDRip

Продолжительность: 02:10:37
Формат: AVI
Видео: XviD, 720x304 (2.35:1), 24.000 fps, 1294 kbps
Аудио: русский, дублированный (чистый звук), AC3 2.0, 48 kHz, 192 kbps

Код:

Формат                                   : AVI
Формат/Информация                        : Audio Video Interleave
Размер файла                             : 1,36 Гбайт
Продолжительность                        : 2 ч. 10 м.
Общий поток                              : 1495 Кбит/сек
Программа кодирования                    : VirtualDubMod 1.5.10.2 (build 2540/release)
Библиотека кодирования                   : VirtualDub build 35390/release

Видео
Идентификатор                            : 0
Формат                                   : MPEG-4 Visual
Профиль формата                          : Advanced Simple@L5
Параметр BVOP формата                    : 2
Параметр QPel формата                    : Нет
Параметр GMC формата                     : Без точки перехода
Параметр матрицы формата                 : Выборочная
Идентификатор кодека                     : XVID
Идентификатор кодека/Подсказка           : XviD
Продолжительность                        : 2 ч. 10 м.
Битрейт                                  : 1294 Кбит/сек
Ширина                                   : 720 пикселей
Высота                                   : 304 пикселя
Соотношение сторон                       : 2,35:1
Частота кадров                           : 24,000 кадра/сек
Цветовое пространство                    : YUV
Субдискретизация насыщенности            : 4:2:0
Битовая глубина                          : 8 бит
Тип развёртки                            : Прогрессивная
Метод сжатия                             : С потерями
Бит/(Пиксели*Кадры)                      : 0.246
Размер потока                            : 1,18 Гбайт (87%)
Библиотека кодирования                   : XviD 1.2.1 (UTC 2008-12-04)

Аудио
Идентификатор                            : 1
Формат                                   : AC-3
Формат/Информация                        : Audio Coding 3
Расширение режима                        : CM (complete main)
Параметр Endianness формата              : Big
Идентификатор кодека                     : 2000
Продолжительность                        : 2 ч. 10 м.
Вид битрейта                             : Постоянный
Битрейт                                  : 192 Кбит/сек
Каналы                                   : 2 канала
Расположение каналов                     : Front: L R
Частота                                  : 48,0 КГц
Битовая глубина                          : 16 бит
Метод сжатия                             : С потерями
Задержка видео                           : 14 мс.
Размер потока                            : 179 Мбайт (13%)
Выравнивание                             : Разделение по промежуткам
Продолжительность промежутка             : 42  мс. (1,00 видеокадр)
Время предзагрузки промежутка            : 500  мс.


picpicpicpicpic
Для увеличения картинки щелкните мышкой по превью

Этот торрент недоступен для скачивания без регистрации, однако доступен по публичной magnet-ссылке (источники с публичных трекеров). Перед использованием ссылки прочтите, пожалуйста Пользовательское соглашение, а также как можно дольше оставайтесь на раздаче! Для того, чтобы скачать сам торрент-файл (который видит больше источников), а также для того, чтобы поблагодарить релизера, вам необходимо зарегистрироваться. Если регистрироваться лень - вы можете также попробовать скачать релиз по нашим партнерским ссылкам ниже.

[underverse.su].t70914.torrent
Трекер: Зарегистрирован   [ 10.10.2016 21:49 ]  

Статус: T временная (by Паукан at 11.10.2016 14:44)
Поблагодарили: 1 человек
Тип торрента: публичный - доступные источники с открытых трекеров: 
Размер: 1,37 GB (занимает 0,31 DVDR, для записи нужно 1 болванка DVDR/RW)
 
 
Похожие темы
Форум Тема Автор Торрент Отв. Посл. сооб.
T Зарубежное кино [DVDRip, Low-Res HDRip, и т.д.] Она / Elle (Пол Верховен) [2016 г., триллер, драма, HDRip] Dub (звук с TS) makkol
329 | 3

0 | 452

19

04.10.2016 21:55

T Зарубежное кино [HDDVDRip / BDRip / WEB-DL / HDTV 1080/720р] Она / Elle (Пол Верховен) [2016 г., триллер, драма, BDRip 1080p] Dub (Line) makkol
104 | 2

0 | 261

10

10.10.2016 22:02

T Зарубежное кино [HDDVDRip / BDRip / WEB-DL / HDTV 1080/720р] Она / Elle (Пол Верховен) [2016 г., триллер, драма, BDRip 720p] Dub (Line) makkol
175 | 9

0 | 240

17

10.10.2016 21:56


Яндекс.Метрика powered by Sphinx


В Н И М А Н И Е
Сайт не распространяет и не хранит электронные версии произведений, а лишь бесплатно и без коммерческой выгоды (не требуя взамен платы,
SMS и т.д.) предоставляет доступ к создаваемому пользователями каталогу ссылок на торрент-файлы, которые содержат только списки хеш-сумм.
Убедительная просьба с жалобами обращаться напрямую к пользователю, разместившему торрент файл.

Вверх