Loading...
Error

Фантазм 5 / Phantasm: Ravager (Дэвид Хартман) [2016 г., ужасы, фэнтези, WEB-DLRip] VO (Xixidok)

Статистика раздачи
Размер:  1,19 GB   |    Зарегистрирован:  2 месяца   |    Скачан:  12 раз
Сидов:  1  |  0 KB/s  ]   Личеров:  0  |  0 KB/s  ]

* - сиды/пиры с внешних источников

   
 
Автор Сообщение

makkol Пол:Муж

10-Окт-2016 21:25

Фантазм 5 / Phantasm: Ravager


Год выпуска: 2016
Жанр: ужасы, фэнтези
Производство: США [Silver Sphere Corporation]
Режиссер: Дэвид Хартман
В ролях: Рэджи Бэннистер, А. Майкл Болдуин, Кэти Лестер, Билл Торнбер, Энгус Скримм, Дэниэл Швайгер, Дэниэл Робак, Джей Олива, Глория Линн Генри, Кин Окада
Сюжет фильма:
Пятая и заключительная часть долгоиграющей хоррор-франшизы. Решающее сражение Майкла и его друзей со зловещим гробовщиком и его сверхъестественной армией, созданной из модифицированных трупов.

  • Мировая премьера: 25 сентября 2016


Качество видео: WEB-DLRip

Продолжительность: 01:25:28
Формат: AVI
Видео: XviD, 720x400 (16:9), 23.976 fps, 1595 kbps
Аудио: русский, любительский одноголосый закадровый (Хихикающий доктор), AC3 5.1, 48 kHz, 384 kbps

Код:

Format : AVI
Format/Info : Audio Video Interleave
File size : 1.19 GiB
Duration : 1 h 25 min
Overall bit rate : 1 988 kb/s
Writing application : VirtualDubMod 1.5.10.1 (build 2366/release)
Writing library : VirtualDubMod build 2366/release

Video
ID : 0
Format : MPEG-4 Visual
Format profile : Simple@L5
Format settings, BVOP : No
Format settings, QPel : No
Format settings, GMC : No warppoints
Format settings, Matrix : Default (H.263)
Codec ID : XVID
Codec ID/Hint : XviD
Duration : 1 h 25 min
Bit rate : 1 595 kb/s
Width : 720 pixels
Height : 400 pixels
Display aspect ratio : 16:9
Frame rate : 23.976 FPS
Color space : YUV
Chroma subsampling : 4:2:0
Bit depth : 8 bits
Scan type : Progressive
Compression mode : Lossy
Bits/(Pixel*Frame) : 0.231
Stream size : 975 MiB (80%)
Writing library : Lavc57.16.101

Audio
ID : 1
Format : AC-3
Format/Info : Audio Coding 3
Mode extension : CM (complete main)
Format settings, Endianness : Big
Codec ID : 2000
Duration : 1 h 25 min
Bit rate mode : Constant
Bit rate : 384 kb/s
Channel(s) : 6 channels
Channel positions : Front: L C R, Side: L R, LFE
Sampling rate : 48.0 kHz
Frame rate : 31.250 FPS (1536 spf)
Compression mode : Lossy
Stream size : 235 MiB (19%)
Alignment : Split accross interleaves
Interleave, duration : 42 ms (1.00 video frame)
Interleave, preload duration : 512 ms
Присутствует голосовая реклама


picpicpicpicpic
Для увеличения картинки щелкните мышкой по превью

Этот торрент недоступен для скачивания без регистрации, однако доступен по публичной magnet-ссылке (источники с публичных трекеров). Перед использованием ссылки прочтите, пожалуйста Пользовательское соглашение, а также как можно дольше оставайтесь на раздаче! Для того, чтобы скачать сам торрент-файл (который видит больше источников), а также для того, чтобы поблагодарить релизера, вам необходимо зарегистрироваться. Если регистрироваться лень - вы можете также попробовать скачать релиз по нашим партнерским ссылкам ниже.

[underverse.su].t70912.torrent
Трекер: Зарегистрирован   [ 10.10.2016 21:25 ]  

Статус: T временная (by Паукан at 11.10.2016 14:46)
Поблагодарили: пока никто не поблагодарил...
Тип торрента: публичный - доступные источники с открытых трекеров: 
Размер: 1,19 GB (занимает 0,27 DVDR, для записи нужно 1 болванка DVDR/RW)
 
 
Похожие темы
Форум Тема Автор Торрент Отв. Посл. сооб.
Зарубежное кино [DVDRip, Low-Res HDRip, и т.д.] Фантазм 5 / Phantasm: Ravager (Дэвид Хартман / David Hartman) [2016 г., ужасы, фэнтези, WEB-DLRip] MVO (Синема УС) + Original (Eng) + Sub (Eng) 90ytr90
49 | 5

0 | 245

6

05.11.2016 10:45

T Зарубежное кино [HDDVDRip / BDRip / WEB-DL / HDTV 1080/720р] Фантазм 5 / Phantasm: Ravager (Дэвид Хартман) [2016 г., ужасы, фэнтези, WEB-DL 1080p] VO (Xixidok) + Original makkol
92 | 1

0 | 346

1

10.10.2016 21:34


Яндекс.Метрика powered by Sphinx


В Н И М А Н И Е
Сайт не распространяет и не хранит электронные версии произведений, а лишь бесплатно и без коммерческой выгоды (не требуя взамен платы,
SMS и т.д.) предоставляет доступ к создаваемому пользователями каталогу ссылок на торрент-файлы, которые содержат только списки хеш-сумм.
Убедительная просьба с жалобами обращаться напрямую к пользователю, разместившему торрент файл.

Вверх