Loading...
Error

Против Кинга / Protiv Kinga (Драгован Йованович) [1974 г., драма, DVDRip] VO + Original + Sub

Статистика раздачи
Размер:  1,36 GB   |    Зарегистрирован:  1 месяц 24 дня   |    Скачан:  0 раз
Сидов:  1  |  0 KB/s  ]   Личеров:  0  |  0 KB/s  ]

* - сиды/пиры с внешних источников

   
 
Автор Сообщение

makkol Пол:Муж

10-Окт-2016 11:42

Против Кинга / Protiv Kinga


Год выпуска: 1974
Жанр: драма
Производство: Югославия [Filmska Radna Zajednica (FRZ)]
Режиссер: Драгован Йованович
В ролях: Славолюб Антич, Бошко Бозин, Владан Сирковиц, Стоян Дечермич, Станко Джорджевич, Милош Исакович, Бранислав-Цига Миленкович, Зоран Миленкович, Душан Милетич, Драголюб-Гула Милославлевич
Сюжет фильма:
Дети небольшого городка копят деньги на лодку, которые у них постоянно отбирает хулиган. Не зная, как противостоять ему, в попавшемся под руку больном бродяге, представившемся боксером, они видят героя своей мечты, которому предоставляют убежище в надежде, что выздоровев он выйдет на поединок с хулиганом. В итоге бродяга соглашается на драку с физически намного более сильным противником, зная, что проиграет бой, но приобретает намного больше - любовь и доверие сына, который был среди детей.

  • Мировая премьера: 28 марта 1974


Качество видео: DVDRip

Продолжительность: 01:11:15
Видео: XviD, 720x544 (4:3), 25.000 fps, 2346 kbps
Аудио #1: русский, любительский одноголосый закадровый, AC3 2.0, 48 kHz, 192 kbps
Аудио #2: английский, оригинал, AC3 2.0, 48 kHz, 192 kbps
Субтитры: русские внешние, SRT

Код:

Format : AVI
Format/Info : Audio Video Interleave
File size : 1.36 GiB
Duration : 1h 11mn
Overall bit rate : 2 739 Kbps
Writing application : VirtualDubMod 1.5.4.1 (build 2178/release)
Writing library : VirtualDubMod build 2178/release

Video
ID : 0
Format : MPEG-4 Visual
Format profile : Advanced Simple@L5
Format settings, BVOP : 1
Format settings, QPel : No
Format settings, GMC : No warppoints
Format settings, Matrix : Custom
Codec ID : XVID
Codec ID/Hint : XviD
Duration : 1h 11mn
Bit rate : 2 346 Kbps
Width : 720 pixels
Height : 544 pixels
Display aspect ratio : 4:3
Frame rate : 25.000 fps
Color space : YUV
Chroma subsampling : 4:2:0
Bit depth : 8 bits
Scan type : Progressive
Compression mode : Lossy
Bits/(Pixel*Frame) : 0.240
Stream size : 1.17 GiB (86%)
Writing library : XviD 64

Audio #1
ID : 1
Format : AC-3
Format/Info : Audio Coding 3
Mode extension : CM (complete main)
Format settings, Endianness : Big
Codec ID : 2000
Duration : 1h 11mn
Bit rate mode : Constant
Bit rate : 192 Kbps
Channel(s) : 2 channels
Channel positions : Front: L R
Sampling rate : 48.0 KHz
Bit depth : 16 bits
Compression mode : Lossy
Stream size : 97.9 MiB (7%)
Alignment : Split accross interleaves
Interleave, duration : 96 ms (2.40 video frames)
Interleave, preload duration : 96 ms
Language : Russian

Audio #2
ID : 2
Format : AC-3
Format/Info : Audio Coding 3
Mode extension : CM (complete main)
Format settings, Endianness : Big
Codec ID : 2000
Duration : 1h 11mn
Bit rate mode : Constant
Bit rate : 192 Kbps
Channel(s) : 2 channels
Channel positions : Front: L R
Sampling rate : 48.0 KHz
Bit depth : 16 bits
Compression mode : Lossy
Stream size : 97.9 MiB (7%)
Alignment : Split accross interleaves
Interleave, duration : 96 ms (2.40 video frames)
Interleave, preload duration : 96 ms
Language : Serbian
Перевод: gordana75
Озвучание: Семен Ващенко
Исходник: yugo45 & Minhers76
Сведение звука и сборка: Diablo
Описание: gordana75
Организация перевода и озвучания: Minhers76
picpicpicpicpic
Для увеличения картинки щелкните мышкой по превью

Этот торрент недоступен для скачивания без регистрации, однако доступен по публичной magnet-ссылке (источники с публичных трекеров). Перед использованием ссылки прочтите, пожалуйста Пользовательское соглашение, а также как можно дольше оставайтесь на раздаче! Для того, чтобы скачать сам торрент-файл (который видит больше источников), а также для того, чтобы поблагодарить релизера, вам необходимо зарегистрироваться. Если регистрироваться лень - вы можете также попробовать скачать релиз по нашим партнерским ссылкам ниже.

[underverse.su].t70895.torrent
Трекер: Зарегистрирован   [ 10.10.2016 11:42 ]  

Статус: проверено (by Паукан at 11.10.2016 14:48)
Поблагодарили: пока никто не поблагодарил...
Тип торрента: публичный - доступные источники с открытых трекеров: 
Размер: 1,36 GB (занимает 0,31 DVDR, для записи нужно 1 болванка DVDR/RW)
 
 

Яндекс.Метрика powered by Sphinx


В Н И М А Н И Е
Сайт не распространяет и не хранит электронные версии произведений, а лишь бесплатно и без коммерческой выгоды (не требуя взамен платы,
SMS и т.д.) предоставляет доступ к создаваемому пользователями каталогу ссылок на торрент-файлы, которые содержат только списки хеш-сумм.
Убедительная просьба с жалобами обращаться напрямую к пользователю, разместившему торрент файл.

Вверх