Loading...
Error

Почему мы толстеем? / Why Are We Getting So Fat? (Милла Харрисон-Хенсли) [2016 г., документальный, научно-популярный, HDTVRip] DVO (Видеофильм ТВ)

Статистика раздачи
Размер:  677 MB   |    Зарегистрирован:  2 месяца 1 день   |    Скачан:  4 раза

Полного источника не было: 3 дня

Сидов:  0  |  0 KB/s  ]   Личеров:  0  |  0 KB/s  ]

* - сиды/пиры с внешних источников

   
 
Автор Сообщение

ARI71 Пол:Муж

09-Окт-2016 20:03

Почему мы толстеем? / Why Are We Getting So Fat?


Год выпуска: 2016
Жанр: документальный, научно-популярный
Страна: Великобритания Science Production London
Режиссер: Милла Харрисон-Хенсли
Ведущий: - генетик, доктор Джайлз Йео
Сюжет фильма:
Мы живем в разгар эпидемии ожирения. Например, более 60% взрослых людей Великобритании классифицируются как страдающие им. И эта цифра растет. Действительно ли эта проблема решается диетой и физическими нагрузками? Ученый-генетик из Кембриджа встретится с самыми большими людьми Британии, чтобы проверить это. От редких генетических мутаций до злоупотребления высококалорийными продуктами - мы выясним, какие факторы играют решающую роль в проблеме увеличения веса.
Качество видео: HDTVRip

Продолжительность: 00:49:45
Формат: AVI
Видео: XviD, 720x400, 1700 kbps
Аудио: русский, двухголосый закадровый [профессиональный, Видеофильм ТВ], AC3 2.0, 192.00 kbps
Автор рипа: RockeT

Код:

Общее
Полное имя : D:\BBC_Horizon_Why Are We Getting So Fat.HDTVRip.by RockeT.KaztorrentS.avi
Формат : AVI
Формат/Информация : Audio Video Interleave
Размер файла : 677 Мбайт
Продолжительность : 49 м.
Общий поток : 1902 Кбит/сек
Программа кодирования : VirtualDubMod 1.5.10.3 | www.virtualdub-fr.org || (build 2550/release)
Библиотека кодирования : VirtualDubMod build 2550/release

Видео
Идентификатор : 0
Формат : MPEG-4 Visual
Профиль формата : Advanced Simple@L5
Параметр BVOP формата : 1
Параметр QPel формата : Нет
Параметр GMC формата : Без точки перехода
Параметр матрицы формата : Default (MPEG)
Идентификатор кодека : XVID
Идентификатор кодека/Подсказка : XviD
Продолжительность : 49 м.
Битрейт : 1700 Кбит/сек
Ширина : 720 пикселей
Высота : 400 пикселей
Соотношение сторон : 16:9
Частота кадров : 25,000 кадров/сек
Цветовое пространство : YUV
Субдискретизация насыщенности : 4:2:0
Битовая глубина : 8 бит
Тип развёртки : Прогрессивная
Метод сжатия : С потерями
Бит/(Пиксели*Кадры) : 0.236
Размер потока : 605 Мбайт (89%)
Библиотека кодирования : XviD 1.2.1 (UTC 2008-12-04)

Аудио
Идентификатор : 1
Формат : AC-3
Формат/Информация : Audio Coding 3
Расширение режима : CM (complete main)
Параметр Endianness формата : Big
Идентификатор кодека : 2000
Продолжительность : 49 м.
Вид битрейта : Постоянный
Битрейт : 192 Кбит/сек
Каналы : 2 канала
Расположение каналов : Front: L R
Частота : 48,0 КГц
Частота кадров : 31,250 кадров/сек (1536 spf)
Метод сжатия : С потерями
Размер потока : 68,3 Мбайт (10%)
Выравнивание : Разделение по промежуткам
Продолжительность промежутка : 40 мс. (1,00 видеокадр)
Время предзагрузки промежутка : 500 мс.
picpicpicpic
Для увеличения картинки щелкните мышкой по превью

Этот торрент недоступен для скачивания без регистрации, однако доступен по публичной magnet-ссылке (источники с публичных трекеров). Перед использованием ссылки прочтите, пожалуйста Пользовательское соглашение, а также как можно дольше оставайтесь на раздаче! Для того, чтобы скачать сам торрент-файл (который видит больше источников), а также для того, чтобы поблагодарить релизера, вам необходимо зарегистрироваться. Если регистрироваться лень - вы можете также попробовать скачать релиз по нашим партнерским ссылкам ниже.

[underverse.su].t70884.torrent
Трекер: Зарегистрирован   [ 09.10.2016 20:03 ]  

Статус: проверено (by ARI71 at 09.10.2016 20:10)
Поблагодарили: пока никто не поблагодарил...
Тип торрента: публичный - доступные источники с открытых трекеров: 
Размер: 677 MB (занимает 0,15 DVDR, для записи нужно 1 болванка DVDR/RW)
 
 
Похожие темы
Форум Тема Автор Торрент Отв. Посл. сооб.
BBC Почему мы толстеем? / Why Are We Getting So Fat? (Милла Харрисон) [2016 г., документальный, научно-популярный, HDTVRip 720p] DVO (Видеофильм ТВ) + Original (Eng) ARI71
5 | 0

1 | 593

6

30.09.2016 14:20

Другие фильмы Почему мы победили [2013 г., документальный, HDTVRip] матроскин
1 | 0

1 | 926

17

12.05.2013 09:55

ARI71 Пол:Муж

09-Окт-2016 20:07

Приятного всем просмотра!

Голосуй за трекер!!




Яндекс.Метрика powered by Sphinx


В Н И М А Н И Е
Сайт не распространяет и не хранит электронные версии произведений, а лишь бесплатно и без коммерческой выгоды (не требуя взамен платы,
SMS и т.д.) предоставляет доступ к создаваемому пользователями каталогу ссылок на торрент-файлы, которые содержат только списки хеш-сумм.
Убедительная просьба с жалобами обращаться напрямую к пользователю, разместившему торрент файл.

Вверх