Loading...
Error

Ваше благородие. Исаак Шварц (Алла Агранович) [2003 г., документальный, биография, музыка, SatRip]

Статистика раздачи
Размер:  529 MB   |    Зарегистрирован:  1 месяц 30 дней   |    Скачан:  0 раз

Полного источника не было: Никогда

Сидов:  0  |  0 KB/s  ]   Личеров:  0  |  0 KB/s  ]

* - сиды/пиры с внешних источников

   
 
Автор Сообщение

ARI71 Пол:Муж

09-Окт-2016 06:59

Ваше благородие. Исаак Шварц


Год выпуска: 2003
Жанр: документальный, биография, музыка
Страна: Россия Студия 217
Режиссер: Алла Агранович
В ролях: Исаак Шварц
Сюжет фильма:
Фильм снят к 80-летию композитора Исаака Шварца (1923-2009). "Ваше благородие, госпожа удача..." — всем и каждому знакомые строчки. Однако эту песню композитора Исаака Шварца и поэта Булата Окуджавы мы могли так никогда и не услышать. Все дело в том, что картину "Белое солнце пустыни" Владимира Мотыля, для которой она и была написана, госчиновники забраковали. Положение спас сам Леонид Ильич Брежнев. После того, как фильм был снят, он еще долго лежал на полке, так как не прошел цензуру, а режиссера обвинили в профнепригодности. А в то время была принята практика, когда на дачах у высших партийных чиновников организовывались закрытые просмотры новинок советского и зарубежного кинематографа. Брежнев был большой поклонник западных боевиков и вестернов, в частности. В канун ноябрьских праздников 69-го года ему из фильмотеки отправили новинку — "Белое солнце пустыни". Генсек был в восторге от увиденного, картина вышла в широкий прокат и стала бестселлером!
В фильме звучат: отрывки из симфонии "Желтые звезды" в исп. Академического симфонического оркестра С.-Петербургской филармонии, дир. Николай Алексеев, и Российского национального оркестра, дир. Владимир Спиваков... Исаак Шварц исп. музыкальные фрагменты из фильма "Карусель".

Исаа́к Ио́сифович Шварц (13 мая 1923, Ромны — 27 декабря 2009, Сиверский) — советский и российский композитор. Народный артист Российской Федерации (1996), лауреат Государственной премии России, трёхкратный обладатель кинопремии «Ника»
Качество видео: SatRip

Продолжительность: 00:42:59
Формат: AVI
Видео: XviD, 672x528, 1499 kbps
Аудио: русский, (оригинал), AC3 2.0, 192.00 kbps

Код:

Общее
Полное имя : D:\ШВАРЦ .-.avi
Формат : AVI
Формат/Информация : Audio Video Interleave
Размер файла : 529 Мбайт
Продолжительность : 43 м.
Общий поток : 1701 Кбит/сек
Программа кодирования : VirtualDubMod 1.5.10.3 | www.virtualdub-fr.org || (build 2550/release)
Библиотека кодирования : VirtualDubMod build 2550/release

Видео
Идентификатор : 0
Формат : MPEG-4 Visual
Профиль формата : Advanced Simple@L5
Параметр BVOP формата : 2
Параметр QPel формата : Нет
Параметр GMC формата : Без точки перехода
Параметр матрицы формата : Default (MPEG)
Идентификатор кодека : XVID
Идентификатор кодека/Подсказка : XviD
Продолжительность : 43 м.
Битрейт : 1499 Кбит/сек
Ширина : 672 пикселя
Высота : 528 пикселей
Соотношение сторон : 1,273
Частота кадров : 25,000 кадров/сек
Цветовое пространство : YUV
Субдискретизация насыщенности : 4:2:0
Битовая глубина : 8 бит
Тип развёртки : Прогрессивная
Метод сжатия : С потерями
Бит/(Пиксели*Кадры) : 0.169
Размер потока : 466 Мбайт (88%)
Библиотека кодирования : XviD 1.2.1 (UTC 2008-12-04)

Аудио
Идентификатор : 1
Формат : AC-3
Формат/Информация : Audio Coding 3
Расширение режима : CM (complete main)
Параметр Endianness формата : Big
Идентификатор кодека : 2000
Продолжительность : 43 м.
Вид битрейта : Постоянный
Битрейт : 192 Кбит/сек
Каналы : 2 канала
Расположение каналов : Front: L R
Частота : 48,0 КГц
Частота кадров : 31,250 кадров/сек (1536 spf)
Метод сжатия : С потерями
Размер потока : 59,7 Мбайт (11%)
Выравнивание : Разделение по промежуткам
Продолжительность промежутка : 40 мс. (1,00 видеокадр)
Время предзагрузки промежутка : 500 мс.
picpicpicpicpic
Для увеличения картинки щелкните мышкой по превью

Этот торрент недоступен для скачивания без регистрации, однако доступен по публичной magnet-ссылке (источники с публичных трекеров). Перед использованием ссылки прочтите, пожалуйста Пользовательское соглашение, а также как можно дольше оставайтесь на раздаче! Для того, чтобы скачать сам торрент-файл (который видит больше источников), а также для того, чтобы поблагодарить релизера, вам необходимо зарегистрироваться. Если регистрироваться лень - вы можете также попробовать скачать релиз по нашим партнерским ссылкам ниже.

[underverse.su].t70863.torrent
Трекер: Зарегистрирован   [ 09.10.2016 06:59 ]  

Статус: проверено (by ARI71 at 09.10.2016 07:02)
Поблагодарили: пока никто не поблагодарил...
Тип торрента: публичный - доступные источники с открытых трекеров: 
Размер: 529 MB (занимает 0,12 DVDR, для записи нужно 1 болванка DVDR/RW)
 
 

Яндекс.Метрика powered by Sphinx


В Н И М А Н И Е
Сайт не распространяет и не хранит электронные версии произведений, а лишь бесплатно и без коммерческой выгоды (не требуя взамен платы,
SMS и т.д.) предоставляет доступ к создаваемому пользователями каталогу ссылок на торрент-файлы, которые содержат только списки хеш-сумм.
Убедительная просьба с жалобами обращаться напрямую к пользователю, разместившему торрент файл.

Вверх