Loading...
Error

Расскажи мне, как я умру / Tell Me How I Die (Донн Дж. Виола) [2016 г., ужасы, WEB-DLRip] VO

Статистика раздачи
Размер:  1,45 GB   |    Зарегистрирован:  2 месяца 1 день   |    Скачан:  12 раз

Полного источника не было: 11 часов

Сидов:  0  |  0 KB/s  ]   Личеров:  0  |  0 KB/s  ]

* - сиды/пиры с внешних источников

   
 
Автор Сообщение

makkol Пол:Муж

08-Окт-2016 13:45

Расскажи мне, как я умру / Tell Me How I Die


Год выпуска: 2016
Жанр: ужасы
Производство: США [Big Block Media Holdings, Base Station, Supergravity Pictures]
Режиссер: Донн Дж. Виола
В ролях: Нэйтан Кресс, Вирджиния Гарднер, Кирби Блисс Блэнтон, Райан Хига, Марк Фурз, Итан Пек, Уильям Мапотер, Марк Ролстон, Марни Алексенбург, Кристофер Аллен
Сюжет фильма:
Когда студенты колледжа соглашаются принять участие в загадочном эксперименте, а добрый доктор скрывает от них информацию о возможных побочных эффектах — жди беды. И главные герои ужастика испытали последствия контролируемого употребления наркотиков на своей шкуре. Дело в том, что счастливчики, побывавшие в затяжном трипе, начали видеть галлюцинации со сценами своей смерти. Поначалу все уверены, что это просто побочные эффекты. Но потом приходит осознание того, что испытуемые умудрились заглянуть туда, куда простым смертным смотреть не следует.

  • Мировая премьера: 16 сентября 2016


Качество видео: WEB-DLRip

Продолжительность: 01:47:13
Формат: AVI
Видео: XviD, 720x304 (2.35:1), 23.976 fps, 1737 kbps
Аудио: русский, любительский одноголосый закадровый (Хихикающий доктор), AC3 2.0, 48 kHz, 192 kbps

Код:

Format : AVI
Format/Info : Audio Video Interleave
File size : 1.45 GiB
Duration : 1h 47mn
Overall bit rate : 1 939 Kbps
Writing application : VirtualDubMod 1.5.10.3 | www.virtualdub-fr.org || (build 2550/release)
Writing library : VirtualDubMod build 2550/release

Video
ID : 0
Format : MPEG-4 Visual
Format profile : Advanced Simple@L5
Format settings, BVOP : 1
Format settings, QPel : No
Format settings, GMC : No warppoints
Format settings, Matrix : Custom
Codec ID : XVID
Codec ID/Hint : XviD
Duration : 1h 47mn
Bit rate : 1 737 Kbps
Width : 720 pixels
Height : 304 pixels
Display aspect ratio : 2.35:1
Frame rate : 23.976 fps
Color space : YUV
Chroma subsampling : 4:2:0
Bit depth : 8 bits
Scan type : Progressive
Compression mode : Lossy
Bits/(Pixel*Frame) : 0.331
Stream size : 1.30 GiB (90%)
Writing library : XviD 73

Audio
ID : 1
Format : AC-3
Format/Info : Audio Coding 3
Mode extension : CM (complete main)
Format settings, Endianness : Big
Codec ID : 2000
Duration : 1h 47mn
Bit rate mode : Constant
Bit rate : 192 Kbps
Channel(s) : 2 channels
Channel positions : Front: L R
Sampling rate : 48.0 KHz
Bit depth : 16 bits
Compression mode : Lossy
Stream size : 147 MiB (10%)
Alignment : Split accross interleaves
Interleave, duration : 42 ms (1.00 video frame)
Interleave, preload duration : 500 ms
picpicpicpicpic
Для увеличения картинки щелкните мышкой по превью

Этот торрент недоступен для скачивания без регистрации, однако доступен по публичной magnet-ссылке (источники с публичных трекеров). Перед использованием ссылки прочтите, пожалуйста Пользовательское соглашение, а также как можно дольше оставайтесь на раздаче! Для того, чтобы скачать сам торрент-файл (который видит больше источников), а также для того, чтобы поблагодарить релизера, вам необходимо зарегистрироваться. Если регистрироваться лень - вы можете также попробовать скачать релиз по нашим партнерским ссылкам ниже.

[underverse.su].t70851.torrent
Трекер: Зарегистрирован   [ 08.10.2016 13:45 ]  

Статус: проверено (by Паукан at 11.10.2016 15:26)
Поблагодарили: пока никто не поблагодарил...
Тип торрента: публичный - доступные источники с открытых трекеров: 
Размер: 1,45 GB (занимает 1/3 DVDR, для записи нужно 1 болванка DVDR/RW)
 
 

Яндекс.Метрика powered by Sphinx


В Н И М А Н И Е
Сайт не распространяет и не хранит электронные версии произведений, а лишь бесплатно и без коммерческой выгоды (не требуя взамен платы,
SMS и т.д.) предоставляет доступ к создаваемому пользователями каталогу ссылок на торрент-файлы, которые содержат только списки хеш-сумм.
Убедительная просьба с жалобами обращаться напрямую к пользователю, разместившему торрент файл.

Вверх