Loading...
Error

Владимир Гостюхин. Герой не нашего времени (Александра Горбачева) [2010 г., документальный, биография, кинематограф, IPTVRip]

Статистика раздачи
Размер:  474 MB   |    Зарегистрирован:  2 месяца   |    Скачан:  1 раз

Полного источника не было: 1 месяц 30 дней

Сидов:  0  |  0 KB/s  ]   Личеров:  0  |  0 KB/s  ]

* - сиды/пиры с внешних источников

   
 
Автор Сообщение

ARI71 Пол:Муж

08-Окт-2016 10:22

Владимир Гостюхин. Герой не нашего времени


Год выпуска: 2010
Жанр: документальный, биография, кинематограф
Страна: Россия «ПродюсерЦентр»
Режиссер: Александра Горбачева
В ролях: Владимир Гостюхин, Александра – дочь актёра, Алла Пролич – жена, Александр Михайлов, Николай Бурляев, Вадим Абдрашитов, Сергей Овчаров, Геннадий Полока.
Сюжет фильма:
Дворовый предводитель, солдат, реквизитор – биография Владимира Гостюхина совсем не похожа на глянцевые резюме сегодняшних звёзд. Стать артистом он мечтал всю жизнь, а помог ему в этом невероятный счастливый случай. В разгар сезона 1975 года в Театре Советской Армии началась паника: заболел исполнитель главной роли в спектакле "Неизвестный солдат", дублёра не было. Положение спас мебельщик-реквизитор Владимир Гостюхин. Оказалось, он знал наизусть весь текст. Работая реквизитором, Гостюхин годами разучивал в подсобке чужие роли и, наконец-то, дождался своей...

Влади́мир Васи́льевич Гостю́хин (10 марта 1946, Свердловск) — советский и белорусский актёр театра и кино, кинорежиссёр. Заслуженный артист Белорусской ССР (1982). Народный артист Беларуси (1996). Лауреат Государственной премии СССР (1985) и Государственной премии РФ (1993).
Качество видео: IPTVRip

Продолжительность: 00:38:57
Формат: AVI
Видео: XviD, 704x400, 1499 kbps
Аудио: русский, (оригинал), MP3 2.0, 192.00 kbps

Код:

Общее
Полное имя : D:\Владимир Гостюхин. Герой не нашего времени (DaVinci).avi
Формат : AVI
Формат/Информация : Audio Video Interleave
Размер файла : 474 Мбайт
Продолжительность : 38 м.
Общий поток : 1700 Кбит/сек
Библиотека кодирования : VirtualDub build 35491/release

Видео
Идентификатор : 0
Формат : MPEG-4 Visual
Профиль формата : Advanced Simple@L5
Параметр BVOP формата : 2
Параметр QPel формата : Нет
Параметр GMC формата : Без точки перехода
Параметр матрицы формата : Default (MPEG)
Режим смешивания : Сжатый битовый поток
Идентификатор кодека : XVID
Идентификатор кодека/Подсказка : XviD
Продолжительность : 38 м.
Битрейт : 1499 Кбит/сек
Ширина : 704 пикселя
Высота : 400 пикселей
Соотношение сторон : 16:9
Частота кадров : 25,000 кадров/сек
Цветовое пространство : YUV
Субдискретизация насыщенности : 4:2:0
Битовая глубина : 8 бит
Тип развёртки : Прогрессивная
Метод сжатия : С потерями
Бит/(Пиксели*Кадры) : 0.213
Размер потока : 418 Мбайт (88%)
Библиотека кодирования : XviD 73

Аудио
Идентификатор : 1
Формат : MPEG Audio
Версия формата : Version 1
Профиль формата : Layer 3
Режим : Joint stereo
Идентификатор кодека : 55
Идентификатор кодека/Подсказка : MP3
Продолжительность : 38 м.
Вид битрейта : Постоянный
Битрейт : 192 Кбит/сек
Каналы : 2 канала
Частота : 48,0 КГц
Метод сжатия : С потерями
Размер потока : 53,5 Мбайт (11%)
Выравнивание : Разделение по промежуткам
Продолжительность промежутка : 40 мс. (1,00 видеокадр)
Время предзагрузки промежутка : 500 мс.
Релиз группы:

picpicpicpicpic
Для увеличения картинки щелкните мышкой по превью

Этот торрент недоступен для скачивания без регистрации, однако доступен по публичной magnet-ссылке (источники с публичных трекеров). Перед использованием ссылки прочтите, пожалуйста Пользовательское соглашение, а также как можно дольше оставайтесь на раздаче! Для того, чтобы скачать сам торрент-файл (который видит больше источников), а также для того, чтобы поблагодарить релизера, вам необходимо зарегистрироваться. Если регистрироваться лень - вы можете также попробовать скачать релиз по нашим партнерским ссылкам ниже.

[underverse.su].t70848.torrent
Трекер: Зарегистрирован   [ 08.10.2016 10:22 ]  

Статус: проверено (by ARI71 at 08.10.2016 10:25)
Поблагодарили: пока никто не поблагодарил...
Тип торрента: публичный - доступные источники с открытых трекеров: 
Размер: 474 MB (занимает 0,11 DVDR, для записи нужно 1 болванка DVDR/RW)
 
 
Похожие темы
Форум Тема Автор Торрент Отв. Посл. сооб.
Личности Владимир Гостюхин. Она его за муки полюбила [2016 г., документальный, биография, кинематограф, SatRip] ARI71
0 | 0

0 | 851

3

12.03.2016 12:37

Классика Владимир Гиляровский - Москва и москвичи (1926) [2002 г., аудиокнига, русская литература, классическая литература, мемуары, MP3, 96 kbps] RUS Паукан
5 | 0

0 | 497

9

06.04.2015 11:09

ARI71 Пол:Муж

08-Окт-2016 10:23

Приятного всем просмотра!

Голосуй за трекер!!




Яндекс.Метрика powered by Sphinx


В Н И М А Н И Е
Сайт не распространяет и не хранит электронные версии произведений, а лишь бесплатно и без коммерческой выгоды (не требуя взамен платы,
SMS и т.д.) предоставляет доступ к создаваемому пользователями каталогу ссылок на торрент-файлы, которые содержат только списки хеш-сумм.
Убедительная просьба с жалобами обращаться напрямую к пользователю, разместившему торрент файл.

Вверх