Loading...
Error

День независимости: Возрождение / Independence Day: Resurgence (Роланд Эммерих) [2016 г., фантастика, боевик, приключения, HDRip] Dub

Статистика раздачи
Размер:  2,05 GB   |    Зарегистрирован:  1 месяц 27 дней   |    Скачан:  20 раз
Сидов:  2  |  0 KB/s  ]   Личеров:  0  |  0 KB/s  ]

* - сиды/пиры с внешних источников

   
 
Автор Сообщение

makkol Пол:Муж

07-Окт-2016 13:48

День независимости: Возрождение
Independence Day: Resurgence
«У нас было двадцать лет на подготовку. У них тоже»

Год выпуска: 2016
Жанр: фантастика, боевик, приключения
Производство: США [20th Century Fox Film Corporation]
Режиссер: Роланд Эммерих
В ролях: Майка Монро, Джои Кинг, Лиам Хемсворт, Джефф Голдблюм, Уильям Фихтнер, Джесси Ашер, Билл Пуллман, Вивика А. Фокс
Сюжет фильма:
Используя инопланетные технологии, жители Земли создали специальную программу по защите планеты. Но ничего не может нас спасти от нового, еще более разрушительного и масштабного инопланетного вторжения — только смелость нескольких героев, которые единственные могут спасти наш мир от уничтожения...

  • Мировая премьера: 20 июня 2016
  • Российская премьера: 23 июня 2016


Качество видео: HDRip

Продолжительность: 01:59:44
Формат: AVI
Видео: XviD, 720x304 (2.35:1), 23.976 fps, 1994 kbps
Аудио: русский, дублированный (лицензия), AC3 5.1, 48 kHz, 448 kbps

Код:

Формат                                   : AVI
Формат/Информация                        : Audio Video Interleave
Профиль формата                          : OpenDML
Размер файла                             : 2,05 Гбайт
Продолжительность                        : 1 ч. 59 м.
Общий поток                              : 2454 Кбит/сек
Программа кодирования                    : VirtualDubMod 1.5.10.2 (build 2540/release)
Библиотека кодирования                   : VirtualDubMod build 2540/release

Видео
Идентификатор                            : 0
Формат                                   : MPEG-4 Visual
Профиль формата                          : Advanced Simple@L5
Параметр BVOP формата                    : 2
Параметр QPel формата                    : Нет
Параметр GMC формата                     : Без точки перехода
Параметр матрицы формата                 : Выборочная
Идентификатор кодека                     : XVID
Идентификатор кодека/Подсказка           : XviD
Продолжительность                        : 1 ч. 59 м.
Битрейт                                  : 1994 Кбит/сек
Ширина                                   : 720 пикселей
Высота                                   : 304 пикселя
Соотношение сторон                       : 2,35:1
Частота кадров                           : 23,976 кадра/сек
Цветовое пространство                    : YUV
Субдискретизация насыщенности            : 4:2:0
Битовая глубина                          : 8 бит
Тип развёртки                            : Прогрессивная
Метод сжатия                             : С потерями
Бит/(Пиксели*Кадры)                      : 0.380
Размер потока                            : 1,67 Гбайт (81%)
Библиотека кодирования                   : XviD 1.2.1 (UTC 2008-12-04)

Аудио
Идентификатор                            : 1
Формат                                   : AC-3
Формат/Информация                        : Audio Coding 3
Расширение режима                        : CM (complete main)
Параметр Endianness формата              : Big
Идентификатор кодека                     : 2000
Продолжительность                        : 1 ч. 59 м.
Вид битрейта                             : Постоянный
Битрейт                                  : 448 Кбит/сек
Каналы                                   : 6 каналов
Расположение каналов                     : Front: L C R, Side: L R, LFE
Частота                                  : 48,0 КГц
Битовая глубина                          : 16 бит
Метод сжатия                             : С потерями
Размер потока                            : 384 Мбайт (18%)
Выравнивание                             : Разделение по промежуткам
Продолжительность промежутка             : 42  мс. (1,00 видеокадр)
Время предзагрузки промежутка            : 500  мс.
picpicpicpicpic
Для увеличения картинки щелкните мышкой по превью

Этот торрент недоступен для скачивания без регистрации, однако доступен по публичной magnet-ссылке (источники с публичных трекеров). Перед использованием ссылки прочтите, пожалуйста Пользовательское соглашение, а также как можно дольше оставайтесь на раздаче! Для того, чтобы скачать сам торрент-файл (который видит больше источников), а также для того, чтобы поблагодарить релизера, вам необходимо зарегистрироваться. Если регистрироваться лень - вы можете также попробовать скачать релиз по нашим партнерским ссылкам ниже.

[underverse.su].t70834.torrent
Трекер: Зарегистрирован   [ 07.10.2016 13:48 ]  

Статус: проверено (by makkol at 07.10.2016 14:11)
Поблагодарили: пока никто не поблагодарил...
Тип торрента: публичный - доступные источники с открытых трекеров: 
Размер: 2,05 GB (занимает 0,47 DVDR, для записи нужно 1 болванка DVDR/RW)
 
 
Похожие темы
Форум Тема Автор Торрент Отв. Посл. сооб.
Зарубежное кино [DVDRip, Low-Res HDRip, и т.д.] День независимости / Independence Day (Роланд Эммерих / Roland Emmerich) [1996 г., фантастика, боевик, приключения, BDRip-AVC] [Extended Cut] MVO (Гемини Фильм) + Original (Eng) + Sub (Rus, Eng) Dmitriy
42 | 0

6 | 2496

1

15.10.2016 10:50

Зарубежное кино [DVDRip, Low-Res HDRip, и т.д.] День независимости: Возрождение / Independence Day: Resurgence (Роланд Эммерих / Roland Emmerich) [2016 г., фантастика, боевик, приключения, BDRip-AVC] Dub + Sub (Rus) 90ytr90
98 | 7

0 | 179

5

05.11.2016 07:39

% Зарубежное кино [DVDRip, Low-Res HDRip, и т.д.] День Независимости / Independence Day (Роланд Эммерих / Roland Emmerich) [1996 г., фантастика, боевик, приключения, BDRip] [Extended Cut] MVO (Superbit) + Original (Eng) 90ytr90
29 | 2

0 | 71

2

15.10.2016 12:08

Зарубежное кино [DVDRip, Low-Res HDRip, и т.д.] День Независимости / Independence Day (Роланд Эммерих / Roland Emmerich) [1996 г., фантастика, боевик, приключения, HDRip] [Extended Cut] MVO (Гемини фильм) 90ytr90
158 | 2

0 | 171

3

15.10.2016 11:44

Зарубежное кино [DVDRip, Low-Res HDRip, и т.д.] День Независимости / Independence Day (Роланд Эммерих / Roland Emmerich) [1996 г., фантастика, боевик, приключения, HDRip] [Extended Cut] MVO (Гемини фильм) 90ytr90
242 | 5

0 | 159

4

15.10.2016 11:37

Зарубежное кино [DVDRip, Low-Res HDRip, и т.д.] День независимости: Возрождение / Independence Day: Resurgence (Роланд Эммерих / Roland Emmerich) [2016 г., фантастика, боевик, приключения, BDRip-AVC] Dub + Original (Eng) + Sub (Rus, Eng) 90ytr90
62 | 0

0 | 277

16

11.10.2016 15:36

Зарубежное кино [DVDRip, Low-Res HDRip, и т.д.] День независимости: Возрождение / Independence Day: Resurgence (Роланд Эммерих / Roland Emmerich) [2016 г., фантастика, боевик, приключения, HDRip] Dub + hardsub (Rus) 90ytr90
1493 | 67

0 | 366

19

10.10.2016 17:48

Зарубежное кино [DVDRip, Low-Res HDRip, и т.д.] День независимости / Independents' Day (Лаура Бет Лав) [2016 г., боевик, фантастика, WEB-DLRip] MVO makkol
162 | 4

2 | 1429

104

22.06.2016 17:25

Зарубежное кино [HDDVDRip / BDRip / WEB-DL / HDTV 1080/720р] День независимости: Возрождение / Independence Day: Resurgence (Роланд Эммерих / Roland Emmerich) [2016 г., фантастика, боевик, приключения, BDRip 1080p] 2xDub (Rus, Ukr) + Original (Eng) + Subs 90ytr90
71 | 6

0 | 168

3

05.11.2016 07:28

Зарубежное кино [HDDVDRip / BDRip / WEB-DL / HDTV 1080/720р] День независимости: Возрождение / Independence Day: Resurgence (Роланд Эммерих / Roland Emmerich) [2016 г., фантастика, боевик, приключения, BDRip 720p] Dub + Original (Eng) + Sub (Rus, Eng) 90ytr90
82 | 2

0 | 236

2

11.10.2016 15:41


Яндекс.Метрика powered by Sphinx


В Н И М А Н И Е
Сайт не распространяет и не хранит электронные версии произведений, а лишь бесплатно и без коммерческой выгоды (не требуя взамен платы,
SMS и т.д.) предоставляет доступ к создаваемому пользователями каталогу ссылок на торрент-файлы, которые содержат только списки хеш-сумм.
Убедительная просьба с жалобами обращаться напрямую к пользователю, разместившему торрент файл.

Вверх