Loading...
Error

Дедушка (Игорь Москвитин) [2016 г., мелодрама, SatRip]

Статистика раздачи
Размер:  1,37 GB   |    Зарегистрирован:  1 месяц 27 дней   |    Скачан:  17 раз

Полного источника не было: 16 часов

Сидов:  0  |  0 KB/s  ]   Личеров:  0  |  0 KB/s  ]

* - сиды/пиры с внешних источников

   
 
Автор Сообщение

makkol Пол:Муж

07-Окт-2016 13:14

Дедушка


Год выпуска: 2016
Жанр: мелодрама
Производство: Россия [Энерджи Фильм Продакшен]
Режиссер: Игорь Москвитин
В ролях: Сергей Чонишвили, Леонид Громов, Антонина Паперная, Фатима Горбенко, Владимир Киммельман, Любава Берло, Елена Валюшкина
Сюжет фильма:
У Ирины, медсестры из маленького городка, порок сердца. По прогнозам врачей её сердцу осталось биться недолго, а позаботиться о шестилетней дочери Анне некому. Ирина лихорадочно пытается найти выход и у неё появляется мысль, что Аню мог бы взять на воспитание дедушка - отец молодого человека, бросившего Ирину беременной. Всё, что она знает о дедушке дочери, Игоре Васильевиче Кутепове, что он довольно успешный бизнесмен и ему 63 года. Ирина отправляется в столицу, чтобы познакомить деда и внучку. Но Игорь Васильевич не готов быть дедушкой, он совсем не чувствует себя стариком. У него хорошо идут дела в бизнесе, и он планирует жениться на девушке в два раза моложе его. Игорь Васильевич не готов примириться с мыслью, что ему нужно заботиться о совершенно чужом ребёнке. Ирина вместе с дочерью возвращается домой ни с чем, а в это время на Игоря Васильевича совершается покушение, после которого он начинает понимать, что маленькая Аня действительно нуждается в его поддержке.

  • Российская премьера: 7 октября 2016


Качество видео: SatRip

Продолжительность: 01:43:41
Формат: AVI
Видео: XviD, 720x400 (16:9), 25.000 fps, 1750 kbps
Аудио: русский, оригинал, MP3 2.0, 48 kHz, 128 kbps

Код:

Формат : AVI
Формат/Информация : Audio Video Interleave
Размер файла : 1,37 Гбайт
Продолжительность : 1 ч. 43 м.
Общий поток : 1888 Кбит/сек
Программа кодирования : VirtualDubMod 1.5.10.3 | www.virtualdub-fr.org || (build 2550/release)
Библиотека кодирования : VirtualDub build 29808/release

Видео
Идентификатор : 0
Формат : MPEG-4 Visual
Профиль формата : Advanced Simple@L5
Параметр BVOP формата : 2
Параметр QPel формата : Нет
Параметр GMC формата : Без точки перехода
Параметр матрицы формата : Default (H.263)
Идентификатор кодека : XVID
Идентификатор кодека/Подсказка : XviD
Продолжительность : 1 ч. 43 м.
Битрейт : 1750 Кбит/сек
Ширина : 720 пикселей
Высота : 400 пикселей
Соотношение сторон : 16:9
Частота кадров : 25,000 кадров/сек
Цветовое пространство : YUV
Субдискретизация насыщенности : 4:2:0
Битовая глубина : 8 бит
Тип развёртки : Прогрессивная
Метод сжатия : С потерями
Бит/(Пиксели*Кадры) : 0.243
Размер потока : 1,27 Гбайт (93%)
Библиотека кодирования : XviD 1.2.1 (UTC 2008-12-04)

Аудио
Идентификатор : 1
Формат : MPEG Audio
Версия формата : Version 1
Профиль формата : Layer 3
Режим : Joint stereo
Расширение режима : MS Stereo
Идентификатор кодека : 55
Идентификатор кодека/Подсказка : MP3
Продолжительность : 1 ч. 43 м.
Вид битрейта : Постоянный
Битрейт : 128 Кбит/сек
Каналы : 2 канала
Частота : 48,0 КГц
Метод сжатия : С потерями
Размер потока : 94,9 Мбайт (7%)
Выравнивание : Соединение по промежуткам
Продолжительность промежутка : 40 мс. (1,00 видеокадр)
Время предзагрузки промежутка : 504 мс.
Библиотека кодирования : LAME3.99r
Настройки программы : -m j -V 4 -q 9 -lowpass 17 -b 128
picpicpic
Для увеличения картинки щелкните мышкой по превью

Этот торрент недоступен для скачивания без регистрации, однако доступен по публичной magnet-ссылке (источники с публичных трекеров). Перед использованием ссылки прочтите, пожалуйста Пользовательское соглашение, а также как можно дольше оставайтесь на раздаче! Для того, чтобы скачать сам торрент-файл (который видит больше источников), а также для того, чтобы поблагодарить релизера, вам необходимо зарегистрироваться. Если регистрироваться лень - вы можете также попробовать скачать релиз по нашим партнерским ссылкам ниже.

[underverse.su].t70832.torrent
Трекер: Зарегистрирован   [ 07.10.2016 13:14 ]  

Статус: проверено (by Паукан at 11.10.2016 17:40)
Поблагодарили: пока никто не поблагодарил...
Тип торрента: публичный - доступные источники с открытых трекеров: 
Размер: 1,37 GB (занимает 0,31 DVDR, для записи нужно 1 болванка DVDR/RW)
 
 

Яндекс.Метрика powered by Sphinx


В Н И М А Н И Е
Сайт не распространяет и не хранит электронные версии произведений, а лишь бесплатно и без коммерческой выгоды (не требуя взамен платы,
SMS и т.д.) предоставляет доступ к создаваемому пользователями каталогу ссылок на торрент-файлы, которые содержат только списки хеш-сумм.
Убедительная просьба с жалобами обращаться напрямую к пользователю, разместившему торрент файл.

Вверх