Loading...
Error

Сети истории. Правдивая история Никколо Макиавелли / Storia in Rete. Niccolo Machiavelli (Александра Джиганте) [2011 г., документальный, постановочный, история, архитектура, исследования, SatRip] VO (Игмар)

Статистика раздачи
Размер:  720 MB   |    Зарегистрирован:  2 месяца 2 дня   |    Скачан:  3 раза

Полного источника не было: 3 дня

Сидов:  0  |  0 KB/s  ]   Личеров:  0  |  0 KB/s  ]

* - сиды/пиры с внешних источников

   
 
Автор Сообщение

ARI71 Пол:Муж

07-Окт-2016 10:06

Сети истории. Правдивая история Никколо Макиавелли / Storia in Rete. Niccolo Machiavelli


Год выпуска: 2011
Жанр: документальный, постановочный, история, архитектура, исследования
Страна: Италия Storia in Rete
Режиссер: Александра Джиганте
Сюжет фильма:
Фильм рассказывает об итальянском мыслителе, политическом деятеле, историке эпохи Ренессанса Никколо Макиавелли.

Никко́ло Макиаве́лли — итальянский мыслитель, философ, писатель, политический деятель — занимал во Флоренции пост секретаря второй канцелярии, отвечал за дипломатические связи республики, автор военно-теоретических трудов.
Качество видео: SatRip

Продолжительность: 00:50:22
Формат: AVI
Видео: XviD, 720x400, 1799 kbps
Аудио: русский, одноголосый закадровый [профессиональный, Игмар], AC3 2.0, 192.00 kbps
Автор рипа:

Код:

Общее
Полное имя : D:\Niccolo_Machiavelli.avi
Формат : AVI
Формат/Информация : Audio Video Interleave
Размер файла : 720 Мбайт
Продолжительность : 50 м.
Общий поток : 1998 Кбит/сек
Программа кодирования : TMPGEnc Video Mastering Works 5 Version. 5.0.6.38
Библиотека кодирования : TMPGEnc Video Mastering Works 5 Version. 5.0.6.38

Видео
Идентификатор : 0
Формат : MPEG-4 Visual
Профиль формата : Advanced Simple@L5
Параметр BVOP формата : 2
Параметр QPel формата : Нет
Параметр GMC формата : Без точки перехода
Параметр матрицы формата : Default (H.263)
Режим смешивания : Сжатый битовый поток
Идентификатор кодека : XVID
Идентификатор кодека/Подсказка : XviD
Продолжительность : 50 м.
Битрейт : 1799 Кбит/сек
Ширина : 720 пикселей
Высота : 400 пикселей
Соотношение сторон : 16:9
Частота кадров : 25,000 кадров/сек
Цветовое пространство : YUV
Субдискретизация насыщенности : 4:2:0
Битовая глубина : 8 бит
Тип развёртки : Прогрессивная
Метод сжатия : С потерями
Бит/(Пиксели*Кадры) : 0.250
Размер потока : 648 Мбайт (90%)
Библиотека кодирования : XviD 73

Аудио
Идентификатор : 1
Формат : AC-3
Формат/Информация : Audio Coding 3
Расширение режима : CM (complete main)
Параметр Endianness формата : Big
Идентификатор кодека : 2000
Продолжительность : 50 м.
Вид битрейта : Постоянный
Битрейт : 192 Кбит/сек
Каналы : 2 канала
Расположение каналов : Front: L R
Частота : 48,0 КГц
Частота кадров : 31,250 кадров/сек (1536 spf)
Метод сжатия : С потерями
Размер потока : 69,2 Мбайт (10%)
Выравнивание : Соединение по промежуткам
Продолжительность промежутка : 240 мс. (6,00 видеокадров)
Время предзагрузки промежутка : 224 мс.
picpicpicpicpic
Для увеличения картинки щелкните мышкой по превью

Этот торрент недоступен для скачивания без регистрации, однако доступен по публичной magnet-ссылке (источники с публичных трекеров). Перед использованием ссылки прочтите, пожалуйста Пользовательское соглашение, а также как можно дольше оставайтесь на раздаче! Для того, чтобы скачать сам торрент-файл (который видит больше источников), а также для того, чтобы поблагодарить релизера, вам необходимо зарегистрироваться. Если регистрироваться лень - вы можете также попробовать скачать релиз по нашим партнерским ссылкам ниже.

[underverse.su].t70829.torrent
Трекер: Зарегистрирован   [ 07.10.2016 10:06 ]  

Статус: проверено (by ARI71 at 07.10.2016 10:35)
Поблагодарили: пока никто не поблагодарил...
Тип торрента: публичный - доступные источники с открытых трекеров: 
Размер: 720 MB (занимает 0,16 DVDR, для записи нужно 1 болванка DVDR/RW)
 
 
Похожие темы
Форум Тема Автор Торрент Отв. Посл. сооб.
Исторические фильмы Сети истории. Анна Мария Луиза Медичи-последняя из Медичи / Storia in Rete. L’ultima del Medici: l’Elettrice Palatina (Александра Джиганте) [2011 г., документальный, постановочный, история, SatRip]... ARI71
2 | 2

1 | 421

0

25.11.2016 07:02

Исторические фильмы Сети истории. Джироламо Савонарола / Storia in Rete. Le visioni di Savonarola (Александра Джиганте) [2011 г., документальный, постановочный, история, SatRip] DVO (Игмар) ARI71
4 | 0

0 | 392

2

17.11.2016 18:48

Исторические фильмы Сети истории. Галилео Галилей / Storia in Rete. Galileo Galilei (Александра Джиганте) [2009 г., документальный, постановочный, история, архитектура, SatRip] DVO (Игмар) ARI71
0 | 0

1 | 301

1

03.11.2016 13:49

Исторические фильмы Сети истории. Правдивая история о Караваджо / Storia in Rete. La vera storia di Caravaggio (Александра Джиганте, Фабио Андриола) [2013 г., документальный, постановочный, история, архитектура, SatRip]... ARI71
5 | 0

1 | 539

2

29.10.2016 09:36

Исторические фильмы Сети истории. Правдивая история о Ромео и Джульетте / Storia in Rete. La vera storia di Romeo e Giulietta (Александра Джиганте) [2011 г., документальный, постановочный, история, архитектура, SatRip]... ARI71
2 | 0

1 | 461

2

20.10.2016 18:49

Исторические фильмы Сети истории. Изабелла д'Эсте – Примадонна Возрождения / Storia in Rete. Isabella d'Este - La Signora del Rinascimento (Александра Джиганте) [2011 г., документальный, история, архитектура, SatRip]... ARI71
1 | 2

1 | 278

0

14.10.2016 11:31

ARI71 Пол:Муж

07-Окт-2016 10:36

Приятного всем просмотра!

Голосуй за трекер!!




Яндекс.Метрика powered by Sphinx


В Н И М А Н И Е
Сайт не распространяет и не хранит электронные версии произведений, а лишь бесплатно и без коммерческой выгоды (не требуя взамен платы,
SMS и т.д.) предоставляет доступ к создаваемому пользователями каталогу ссылок на торрент-файлы, которые содержат только списки хеш-сумм.
Убедительная просьба с жалобами обращаться напрямую к пользователю, разместившему торрент файл.

Вверх