Loading...
Error

Ночные стражи (Эмилис Веливис) [2016 г., фэнтези, боевик, WEB-DLRip] Rus (iTunes)

Статистика раздачи
Размер:  1,45 GB   |    Зарегистрирован:  2 месяца   |    Скачан:  26 раз
Сидов:  2  |  1 KB/s  ]   Личеров:  0  |  0 KB/s  ]

* - сиды/пиры с внешних источников

   
 
Автор Сообщение

makkol Пол:Муж

06-Окт-2016 09:59

Ночные стражи
«Отдел борьбы с нечистью ждет новую кровь»


Год выпуска: 2016
Жанр: фэнтези, боевик
Производство: Россия [Марс Медиа Энтертейнмент]
Режиссер: Эмилис Веливис
В ролях: Иван Янковский, Любовь Аксенова, Леонид Ярмольник, Михаил Евланов, Сабина Ахмедова, Константин Адаев, Юрий Ваксман, Алексей Дмитриев
Сюжет фильма:
Оборотни, упыри и ведьмы — существуют. Если вы до сих пор не сталкивались с ними, то это заслуга отдела по надзору за представителями альтернативной жизни. Обычный курьер случайно становится свидетелем зачистки нечисти в одном из столичных отелей, после чего получает новую работу. Сотрудники отдела «Н» не бессмертны, но даже вампирам они не по зубам...

  • Мировая премьера: 2 сентября 2016
  • Российская премьера: 25 августа 2016


Качество видео: WEB-DLRip

Продолжительность: 01:35:27
Формат: AVI
Видео: XviD, 720x304 (2.35:1), 25.000 fps, 1756 kbps
Аудио: русский, оригинал (iTunes), AC3 5.1, 48 kHz, 384 kbps

Код:

Format : AVI
Format/Info : Audio Video Interleave
File size : 1.45 GiB
Duration : 1h 36mn
Overall bit rate : 2 149 Kbps
Writing application : VirtualDubMod 1.5.10.3 | www.virtualdub-fr.org || (build 2550/release)
Writing library : VirtualDubMod build 2550/release

Video
ID : 0
Format : MPEG-4 Visual
Format profile : Advanced Simple@L5
Format settings, BVOP : 1
Format settings, QPel : No
Format settings, GMC : No warppoints
Format settings, Matrix : Custom
Codec ID : XVID
Codec ID/Hint : XviD
Duration : 1h 36mn
Bit rate : 1 756 Kbps
Width : 720 pixels
Height : 304 pixels
Display aspect ratio : 2.35:1
Frame rate : 25.000 fps
Color space : YUV
Chroma subsampling : 4:2:0
Bit depth : 8 bits
Scan type : Progressive
Compression mode : Lossy
Bits/(Pixel*Frame) : 0.321
Stream size : 1.19 GiB (82%)
Writing library : XviD 73

Audio
ID : 1
Format : AC-3
Format/Info : Audio Coding 3
Mode extension : CM (complete main)
Format settings, Endianness : Big
Codec ID : 2000
Duration : 1h 36mn
Bit rate mode : Constant
Bit rate : 384 Kbps
Channel(s) : 6 channels
Channel positions : Front: L C R, Side: L R, LFE
Sampling rate : 48.0 KHz
Frame rate : 31.250 fps (1536 spf)
Compression mode : Lossy
Stream size : 266 MiB (18%)
Alignment : Split accross interleaves
Interleave, duration : 40 ms (1.00 video frame)
Interleave, preload duratio : 500 ms


picpicpicpicpic
Для увеличения картинки щелкните мышкой по превью

Этот торрент недоступен для скачивания без регистрации, однако доступен по публичной magnet-ссылке (источники с публичных трекеров). Перед использованием ссылки прочтите, пожалуйста Пользовательское соглашение, а также как можно дольше оставайтесь на раздаче! Для того, чтобы скачать сам торрент-файл (который видит больше источников), а также для того, чтобы поблагодарить релизера, вам необходимо зарегистрироваться. Если регистрироваться лень - вы можете также попробовать скачать релиз по нашим партнерским ссылкам ниже.

[underverse.su].t70809.torrent
Трекер: Зарегистрирован   [ 06.10.2016 09:59 ]  

Статус: T временная (by Паукан at 11.10.2016 14:44)
Поблагодарили: пока никто не поблагодарил...
Тип торрента: публичный - доступные источники с открытых трекеров: 
Размер: 1,45 GB (занимает 1/3 DVDR, для записи нужно 1 болванка DVDR/RW)
 
 
Похожие темы
Форум Тема Автор Торрент Отв. Посл. сооб.
T Наше кино [DVDRip, Low-Res HDRip, и т.д.] Ночные стражи (Эмилис Веливис) [2016 г., фэнтези, боевик, WEB-DLRip] Original (iTunes) 90ytr90
65 | 3

0 | 186

7

19.11.2016 13:45

Наше кино [DVDRip, Low-Res HDRip, и т.д.] Ночные стражи (Эмилис Веливис) [2016 г., фэнтези, боевик, HDTVRip] makkol
3674 | 71

0 | 311

43

29.09.2016 10:30

T Наше кино [HDDVDRip / BDRip / WEB-DL / HDTV 1080/720р] Ночные стражи (Эмилис Веливис) [2016 г., фэнтези, боевик, WEB-DL 1080p] Rus (iTunes) makkol
4 | 0

0 | 480

18

06.10.2016 10:49

T Наше кино [HDDVDRip / BDRip / WEB-DL / HDTV 1080/720р] Ночные стражи (Эмилис Веливис) [2016 г., фэнтези, боевик, WEB-DL 720p] Rus (iTunes) makkol
3 | 0

0 | 371

14

06.10.2016 10:38

Наше кино [HDDVDRip / BDRip / WEB-DL / HDTV 1080/720р] Ночные стражи (Эмилис Веливис) [2016 г., фэнтези, боевик, HDTV 1080i] makkol
268 | 4

0 | 248

24

28.09.2016 21:40

Наше кино [HDDVDRip / BDRip / WEB-DL / HDTV 1080/720р] Ночные стражи (Эмилис Веливис) [2016 г., фэнтези, боевик, HDTVRip 720p] makkol
281 | 2

0 | 193

25

29.09.2016 10:37

T Новинки кино [CAMRip, TS, DVDScr, WP, TC] Ночные стражи (Эмилис Веливис) [2016 г., фэнтези, боевик, CAMRip] makkol
150 | 2

0 | 636

55

26.09.2016 22:19


Яндекс.Метрика powered by Sphinx


В Н И М А Н И Е
Сайт не распространяет и не хранит электронные версии произведений, а лишь бесплатно и без коммерческой выгоды (не требуя взамен платы,
SMS и т.д.) предоставляет доступ к создаваемому пользователями каталогу ссылок на торрент-файлы, которые содержат только списки хеш-сумм.
Убедительная просьба с жалобами обращаться напрямую к пользователю, разместившему торрент файл.

Вверх