Loading...
Error

Связанные: Шесть ступеней отдаления / Connected: The Power of Six Degrees (Аннамария Талас) [2008 г., документальный, научно-популярный, SatRip] DVO (Da Vinci Learning)

Статистика раздачи
Размер:  652 MB   |    Зарегистрирован:  1 месяц 30 дней   |    Скачан:  2 раза

Полного источника не было: 8 дней

Сидов:  0  |  0 KB/s  ]   Личеров:  0  |  0 KB/s  ]

* - сиды/пиры с внешних источников

   
 
Автор Сообщение

ARI71 Пол:Муж

05-Окт-2016 07:56

Связанные: Шесть ступеней отдаления / Connected: The Power of Six Degrees


Год выпуска: 2008
Жанр: документальный, научно-популярный
Страна: Австралия Australian Broadcasting Corporation, and the BBC, Discovery Channel Canada
Режиссер: Аннамария Талас
Сюжет фильма:
Нашу планету населяют более 6 000 000 000 человек. Возможно ли, что от Вас до любого человека всего лишь 6 шагов. Теория 6 шагов отдаления нашла то, что объединяет всех нас, то, что поможет найти лекарство от рака и предотвратить терроризм. Подтвердится ли данная теория практикой или останется просто мифом? Фильм рассказывает о нестандартной теории: некий всеобъемлющий, фундаментальный закон природы объединяет все - от людей до вирусов.


Качество видео: SatRip

Продолжительность: 00:45:37
Формат: AVI
Видео: XviD, 704x400, 1797 kbps
Аудио: русский, двухголосый закадровый [профессиональный, Da Vinci Learning], AC3 2.0, 192.00 kbps

Автор рипа: skorpionN

Код:

Общее
Полное имя : D:\BBC_Connected_The Power of Six Degrees.avi
Формат : AVI
Формат/Информация : Audio Video Interleave
Размер файла : 652 Мбайт
Продолжительность : 45 м.
Общий поток : 1997 Кбит/сек
Программа кодирования : TMPGEnc Video Mastering Works 5 Version. 5.0.6.38
Библиотека кодирования : TMPGEnc Video Mastering Works 5 Version. 5.0.6.38

Видео
Идентификатор : 0
Формат : MPEG-4 Visual
Профиль формата : Advanced Simple@L5
Параметр BVOP формата : 2
Параметр QPel формата : Нет
Параметр GMC формата : Без точки перехода
Параметр матрицы формата : Default (H.263)
Режим смешивания : Сжатый битовый поток
Идентификатор кодека : XVID
Идентификатор кодека/Подсказка : XviD
Продолжительность : 45 м.
Битрейт : 1797 Кбит/сек
Ширина : 704 пикселя
Высота : 400 пикселей
Соотношение сторон : 16:9
Частота кадров : 25,000 кадров/сек
Цветовое пространство : YUV
Субдискретизация насыщенности : 4:2:0
Битовая глубина : 8 бит
Тип развёртки : Прогрессивная
Метод сжатия : С потерями
Бит/(Пиксели*Кадры) : 0.255
Размер потока : 586 Мбайт (90%)
Библиотека кодирования : XviD 73

Аудио
Идентификатор : 1
Формат : AC-3
Формат/Информация : Audio Coding 3
Расширение режима : CM (complete main)
Параметр Endianness формата : Big
Идентификатор кодека : 2000
Продолжительность : 45 м.
Вид битрейта : Постоянный
Битрейт : 192 Кбит/сек
Каналы : 2 канала
Расположение каналов : Front: L R
Частота : 48,0 КГц
Частота кадров : 31,250 кадров/сек (1536 spf)
Метод сжатия : С потерями
Размер потока : 62,7 Мбайт (10%)
Выравнивание : Соединение по промежуткам
Продолжительность промежутка : 240 мс. (6,00 видеокадров)
Время предзагрузки промежутка : 224 мс.
picpicpicpicpic
Для увеличения картинки щелкните мышкой по превью

Этот торрент недоступен для скачивания без регистрации, однако доступен по публичной magnet-ссылке (источники с публичных трекеров). Перед использованием ссылки прочтите, пожалуйста Пользовательское соглашение, а также как можно дольше оставайтесь на раздаче! Для того, чтобы скачать сам торрент-файл (который видит больше источников), а также для того, чтобы поблагодарить релизера, вам необходимо зарегистрироваться. Если регистрироваться лень - вы можете также попробовать скачать релиз по нашим партнерским ссылкам ниже.

[underverse.su].t70784.torrent
Трекер: Зарегистрирован   [ 05.10.2016 07:56 ]  

Статус: проверено (by ARI71 at 05.10.2016 09:03)
Поблагодарили: 1 человек
Тип торрента: публичный - доступные источники с открытых трекеров: 
Размер: 652 MB (занимает 0,15 DVDR, для записи нужно 1 болванка DVDR/RW)
 
 

ARI71 Пол:Муж

05-Окт-2016 07:58

Приятного всем просмотра!

Голосуй за трекер!!




Яндекс.Метрика powered by Sphinx


В Н И М А Н И Е
Сайт не распространяет и не хранит электронные версии произведений, а лишь бесплатно и без коммерческой выгоды (не требуя взамен платы,
SMS и т.д.) предоставляет доступ к создаваемому пользователями каталогу ссылок на торрент-файлы, которые содержат только списки хеш-сумм.
Убедительная просьба с жалобами обращаться напрямую к пользователю, разместившему торрент файл.

Вверх