Loading...
Error

Тоннель / Teoneol / Teo-neol (Ким Сон-хун) [2016 г., драма, HDRip] DVO

Статистика раздачи
Размер:  2,06 GB   |    Зарегистрирован:  2 месяца 2 дня   |    Скачан:  14 раз

Полного источника не было: 2 дня 12 часов

Сидов:  0  |  0 KB/s  ]   Личеров:  0  |  0 KB/s  ]

* - сиды/пиры с внешних источников

   
 
Автор Сообщение

makkol Пол:Муж

04-Окт-2016 14:34

Тоннель / Teoneol / Teo-neol


Год выпуска: 2016
Жанр: драма
Производство: Корея Южная [Another Sunday, BA Entertainment, History E&M]
Режиссер: Ким Сон-хун
В ролях: Ду На Пэ, Чон У Ха, Даль Су О, Су Чжон Е, Гви Хва Чхве, Чжон Су Ким
Сюжет фильма:
Из-за халатности во время строительства и вследствии из-за непрочной конструкции происходит обрушение тоннеля.
Люди оказываются под завалами, в ловушке внутри подземного сооружения.
Фильм снят по одноименному роману Со Чжэ Вона.

  • Мировая премьера: 10 августа 2016


Качество видео: HDRip

Продолжительность: 02:06:27
Формат: AVI
Видео: XviD, 720x304 (2.35:1), 23.976 fps, 2067 kbps
Аудио: русский, любительский двухголосый закадровый, AC3 2.0, 48 kHz, 256 kbps

Код:

Формат                                   : AVI
Формат/Информация                        : Audio Video Interleave
Профиль формата                          : OpenDML
Размер файла                             : 2,06 Гбайт
Продолжительность                        : 2 ч. 6 м.
Общий поток                              : 2334 Кбит/сек
Название фильма                          : Rip by basma4i
Программа кодирования                    : Lavf57.41.100

Видео
Идентификатор                            : 0
Формат                                   : MPEG-4 Visual
Профиль формата                          : Simple@L5
Параметр BVOP формата                    : 2
Параметр QPel формата                    : Нет
Параметр GMC формата                     : Без точки перехода
Параметр матрицы формата                 : Default (H.263)
Режим смешивания                         : Сжатый битовый поток
Идентификатор кодека                     : XVID
Идентификатор кодека/Подсказка           : XviD
Продолжительность                        : 2 ч. 6 м.
Битрейт                                  : 2067 Кбит/сек
Ширина                                   : 720 пикселей
Высота                                   : 304 пикселя
Соотношение сторон                       : 2,40:1
Частота кадров                           : 23,976 кадра/сек
Цветовое пространство                    : YUV
Субдискретизация насыщенности            : 4:2:0
Битовая глубина                          : 8 бит
Тип развёртки                            : Прогрессивная
Метод сжатия                             : С потерями
Бит/(Пиксели*Кадры)                      : 0.394
Размер потока                            : 1,83 Гбайт (89%)
Библиотека кодирования                   : XviD 67

Аудио
Идентификатор                            : 1
Формат                                   : AC-3
Формат/Информация                        : Audio Coding 3
Расширение режима                        : CM (complete main)
Параметр Endianness формата              : Big
Идентификатор кодека                     : 2000
Продолжительность                        : 2 ч. 6 м.
Вид битрейта                             : Постоянный
Битрейт                                  : 256 Кбит/сек
Каналы                                   : 2 канала
Расположение каналов                     : Front: L R
Частота                                  : 48,0 КГц
Битовая глубина                          : 16 бит
Метод сжатия                             : С потерями
Размер потока                            : 232 Мбайт (11%)
Выравнивание                             : Соединение по промежуткам
Продолжительность промежутка             : 32  мс. (0,77 видеокадр)
GREEN TEA
Перевод: Алексей Хорошавин
Озвучивание: Константин Романов, Ольга Гринтиева
Таймингёр: Екатерина Юрьева
Работы со звуком: Ольга Гринтиева


picpicpicpicpic
Для увеличения картинки щелкните мышкой по превью

Этот торрент недоступен для скачивания без регистрации, однако доступен по публичной magnet-ссылке (источники с публичных трекеров). Перед использованием ссылки прочтите, пожалуйста Пользовательское соглашение, а также как можно дольше оставайтесь на раздаче! Для того, чтобы скачать сам торрент-файл (который видит больше источников), а также для того, чтобы поблагодарить релизера, вам необходимо зарегистрироваться. Если регистрироваться лень - вы можете также попробовать скачать релиз по нашим партнерским ссылкам ниже.

[underverse.su].t70774.torrent
Трекер: Зарегистрирован   [ 04.10.2016 14:34 ]  

Статус: проверено (by Паукан at 04.10.2016 15:54)
Поблагодарили: пока никто не поблагодарил...
Тип торрента: публичный - доступные источники с открытых трекеров: 
Размер: 2,06 GB (занимает 0,47 DVDR, для записи нужно 1 болванка DVDR/RW)
 
 
Похожие темы
Форум Тема Автор Торрент Отв. Посл. сооб.
T Зарубежное кино [DVDRip, Low-Res HDRip, и т.д.] Тоннель / Teoneol (Ким Сон-хун / Seong-hun Kim) [2016 г., драма, HDTVRip] MVO 90ytr90
5 | 0

0 | 311

2

26.11.2016 15:53

T Зарубежное кино [DVDRip, Low-Res HDRip, и т.д.] Тоннель / Teoneol (Ким Сон-хун / Seong-hun Kim) [2016 г., драма, HDTVRip] MVO 90ytr90
6 | 0

0 | 290

3

26.11.2016 15:47

T Зарубежное кино [HDDVDRip / BDRip / WEB-DL / HDTV 1080/720р] Тоннель / Teoneol (Ким Сон-хун / Seong-hun Kim) [2016 г., драма, HDTV 720p] MVO 90ytr90
4 | 0

0 | 282

6

26.11.2016 15:50


Яндекс.Метрика powered by Sphinx


В Н И М А Н И Е
Сайт не распространяет и не хранит электронные версии произведений, а лишь бесплатно и без коммерческой выгоды (не требуя взамен платы,
SMS и т.д.) предоставляет доступ к создаваемому пользователями каталогу ссылок на торрент-файлы, которые содержат только списки хеш-сумм.
Убедительная просьба с жалобами обращаться напрямую к пользователю, разместившему торрент файл.

Вверх