Loading...
Error

Таинственный мир гормонов / The Fantastical World of Hormones with Professor John Wass (Джеймс Сенди) [2014 г., документальный, научно-познавательный, HDTVRip] Dub (Видеофильм ТВ)

Статистика раздачи
Размер:  779 MB   |    Зарегистрирован:  2 месяца 2 дня   |    Скачан:  6 раз

Полного источника не было: 1 месяц 11 дней

Сидов:  0  |  0 KB/s  ]   Личеров:  0  |  0 KB/s  ]

* - сиды/пиры с внешних источников

   
 
Автор Сообщение

ARI71 Пол:Муж

04-Окт-2016 11:28

Таинственный мир гормонов / The Fantastical World of Hormones with Professor John Wass


Год выпуска: 2014
Жанр: документальный, научно-познавательный
Страна: Великобритания Furnace Ltd for BBC
Режиссер: Джеймс Сенди
Ведущий: Джон Васс
Сюжет фильма:
Гормоны формируют каждого из нас, влияя на все наши характеристики: рост, вес, предпочтения в еде, как мы будем расти и размножаться и даже как мы будем себя вести и чувствовать. Этот документальный фильм расскажет удивительную и странную историю того, как были обнаружены гормоны.


Качество видео: HDTVRip

Продолжительность: 00:57:16
Формат: AVI
Видео: XviD, 720x400, 1700 kbps
Аудио: русский, дублированный [Видеофильм ТВ], AC3 2.0, 192.00 kbps

Код:

Общее
Полное имя : D:\BBC_The Fantastical World of Hormones.HDTVRip.by RockeT [KazTorrentS].avi
Формат : AVI
Формат/Информация : Audio Video Interleave
Размер файла : 779 Мбайт
Продолжительность : 57 м.
Общий поток : 1902 Кбит/сек
Программа кодирования : VirtualDubMod 1.5.10.3 | www.virtualdub-fr.org || (build 2550/release)
Библиотека кодирования : VirtualDubMod build 2550/release

Видео
Идентификатор : 0
Формат : MPEG-4 Visual
Профиль формата : Advanced Simple@L5
Параметр BVOP формата : 1
Параметр QPel формата : Нет
Параметр GMC формата : Без точки перехода
Параметр матрицы формата : Default (MPEG)
Идентификатор кодека : XVID
Идентификатор кодека/Подсказка : XviD
Продолжительность : 57 м.
Битрейт : 1700 Кбит/сек
Ширина : 720 пикселей
Высота : 400 пикселей
Соотношение сторон : 16:9
Частота кадров : 25,000 кадров/сек
Цветовое пространство : YUV
Субдискретизация насыщенности : 4:2:0
Битовая глубина : 8 бит
Тип развёртки : Прогрессивная
Метод сжатия : С потерями
Бит/(Пиксели*Кадры) : 0.236
Размер потока : 696 Мбайт (89%)
Библиотека кодирования : XviD 1.2.1 (UTC 2008-12-04)

Аудио
Идентификатор : 1
Формат : AC-3
Формат/Информация : Audio Coding 3
Расширение режима : CM (complete main)
Параметр Endianness формата : Big
Идентификатор кодека : 2000
Продолжительность : 57 м.
Вид битрейта : Постоянный
Битрейт : 192 Кбит/сек
Каналы : 2 канала
Расположение каналов : Front: L R
Частота : 48,0 КГц
Частота кадров : 31,250 кадров/сек (1536 spf)
Метод сжатия : С потерями
Размер потока : 78,6 Мбайт (10%)
Выравнивание : Разделение по промежуткам
Продолжительность промежутка : 40 мс. (1,00 видеокадр)
Время предзагрузки промежутка : 500 мс.
picpicpicpicpic
Для увеличения картинки щелкните мышкой по превью

Этот торрент недоступен для скачивания без регистрации, однако доступен по публичной magnet-ссылке (источники с публичных трекеров). Перед использованием ссылки прочтите, пожалуйста Пользовательское соглашение, а также как можно дольше оставайтесь на раздаче! Для того, чтобы скачать сам торрент-файл (который видит больше источников), а также для того, чтобы поблагодарить релизера, вам необходимо зарегистрироваться. Если регистрироваться лень - вы можете также попробовать скачать релиз по нашим партнерским ссылкам ниже.

[underverse.su].t70765.torrent
Трекер: Зарегистрирован   [ 04.10.2016 11:28 ]  

Статус: проверено (by ARI71 at 04.10.2016 11:33)
Поблагодарили: пока никто не поблагодарил...
Тип торрента: публичный - доступные источники с открытых трекеров: 
Размер: 779 MB (занимает 0,17 DVDR, для записи нужно 1 болванка DVDR/RW)
 
 
Похожие темы
Форум Тема Автор Торрент Отв. Посл. сооб.
Зарубежное кино [DVDRip, Low-Res HDRip, и т.д.] Таинственный Альберт Ноббс / Albert Nobbs (Родриго Гарсия) [2011 г., драма, HDRip] RG NewCinema
0 | 0

0 | 443

1

20.06.2012 15:12

Зарубежное кино [DVDRip, Low-Res HDRip, и т.д.] Таинственный остров / Mysterious Island (Кай Чунг Чунг / Kai Cheung Chung) [2011 г., ужасы, DVDRip] VO (den904) 90ytr90
2 | 0

0 | 530

6

24.09.2012 15:08

Зарубежное кино [DVDRip, Low-Res HDRip, и т.д.] Таинственный Альберт Ноббс / Albert Nobbs (Родриго Гарсия / Rodrigo Garcia) [2011, Великобритания, Ирландия, Франция, США, драма, HDRip] MVO Garnett
0 | 0

0 | 530

11

26.04.2013 16:50

Зарубежное кино [DVDRip, Low-Res HDRip, и т.д.] Таинственный путь / Mystery Road (Иван Сен) [2013 г., триллер, детектив, HDRip] VO [datynet] Паукан
4 | 0

0 | 1292

22

30.04.2014 11:50

BBC Таинственный мир гормонов / The Fantastical World of Hormones with Professor John Wass (Джеймс Сенди) [2014 г., документальный, научно-познавательный, HDTVRip 720p] Dub + Original (Eng) + Sub (Eng) ARI71
0 | 0

1 | 370

3

24.09.2016 21:25

Научно-популярные фильмы Таинственная Россия - Пермский край [2011 г., документальный, TVRip] матроскин
0 | 0

2 | 710

9

02.05.2015 20:30

Научно-популярные фильмы Таинственная Россия - Ставропольский край [2013 г., документальный, TVRip] матроскин
0 | 0

2 | 718

9

02.05.2015 20:27

Релизы Таинственные сказки: Околдованный город. Коллекционное издание / Shrouded Tales: The Spellbound Land. Collector's Edition [2014 г., Квест, Поиск Предметов] RUS [P] Станислав Карбанович
57 | 1

1 | 898

16

25.02.2015 17:20

* Архив Таинственный остров (Владимир Тихий) [2008 г., триллер, DVDRip] seriiko

7 | 1610

29.08.2010 23:52

Архив Таинственная игра / Fushigi Yuugi / Mysterious Play / TV-series, 1-52 из 52 (Камэгаки Хадзимэ) [1995 г., приключения, романтика, фэнтези, сёдзё, DVD-9] Печаль'ka
0 | 0

2 | 2173

0

17.02.2011 14:46

ARI71 Пол:Муж

04-Окт-2016 11:29

Приятного всем просмотра!

Голосуй за трекер!!




Яндекс.Метрика powered by Sphinx


В Н И М А Н И Е
Сайт не распространяет и не хранит электронные версии произведений, а лишь бесплатно и без коммерческой выгоды (не требуя взамен платы,
SMS и т.д.) предоставляет доступ к создаваемому пользователями каталогу ссылок на торрент-файлы, которые содержат только списки хеш-сумм.
Убедительная просьба с жалобами обращаться напрямую к пользователю, разместившему торрент файл.

Вверх