Loading...
Error

Операция Валькирия: Рассвет четвертого Рейха / Beyond Valkyrie: Dawn of the 4th Reich (Клаудио Фах) [2016 г., боевик, военный, история, WEB-DLRip] MVO (iTunes)

Статистика раздачи
Размер:  1,37 GB   |    Зарегистрирован:  1 месяц 30 дней   |    Скачан:  19 раз
Сидов:  2  |  9 KB/s  ]   Личеров:  0  |  0 KB/s  ]

* - сиды/пиры с внешних источников

   
 
Автор Сообщение

makkol Пол:Муж

04-Окт-2016 11:17

Операция Валькирия: Рассвет четвертого Рейха
После Валькирии: Рассвет четвертого Рейха
Beyond Valkyrie: Dawn of the 4th Reich


Год выпуска: 2016
Жанр: боевик, военный, история
Производство: США [Jumping Horse Film, Stage 6 Films]
Режиссер: Клаудио Фах
В ролях: Том Сайзмор, Рутгер Хауэр, Шон Патрик Флэнери, Кип Парду, Стивен Лэнг, Эрик Ладин, Йоханнес Херршманн, Павел Личникофф, Юли Энгельбрехт
Сюжет фильма:
Цель операции "Валькирия" - убийство Адольфа Гитлера. Союзная боевая группа готовит вывоз человека, назначенного править послевоенной Германией. Но все меняется после провала операции "Валькирия". Теперь неожиданным союзникам придется работать вместе, чтобы воспрепятсвовать отьезду группы нацистких офицеров в Аргентину с целью организации Четвертого Рейха.

  • Мировая премьера: 27 сентября 2016


Качество видео: WEB-DLRip

Продолжительность: 01:40:34
Формат: AVI
Видео: XviD, 720x384 (1.85:1), 23.976 fps, 1553 kbps
Аудио: русский, профессиональный многоголосый закадровый (iTunes), AC3 5.1, 48 kHz, 384 kbps

Код:

Format                      : AVI
Format/Info                 : Audio Video Interleave
File size                   : 1.37 GiB
Duration                    : 1 h 40 min
Overall bit rate            : 1 947 kb/s
Writing application         : VirtualDubMod 1.5.10.2 (build 2540/release)
Writing library             : VirtualDubMod build 2540/release

Video
ID                          : 0
Format                      : MPEG-4 Visual
Format profile              : Advanced Simple@L5
Format settings, BVOP       : 2
Format settings, QPel       : No
Format settings, GMC        : No warppoints
Format settings, Matrix     : Default (MPEG)
Codec ID                    : XVID
Codec ID/Hint               : XviD
Duration                    : 1 h 40 min
Bit rate                    : 1 553 kb/s
Width                       : 720 pixels
Height                      : 384 pixels
Display aspect ratio        : 1.85:1
Frame rate                  : 23.976 (24000/1001) FPS
Color space                 : YUV
Chroma subsampling          : 4:2:0
Bit depth                   : 8 bits
Scan type                   : Progressive
Compression mode            : Lossy
Bits/(Pixel*Frame)          : 0.234
Stream size                 : 1.09 GiB (80%)
Writing library             : XviD 1.2.1 (UTC 2008-12-04)

Audio
ID                          : 1
Format                      : AC-3
Format/Info                 : Audio Coding 3
Mode extension              : CM (complete main)
Format settings, Endianness : Big
Codec ID                    : 2000
Duration                    : 1 h 40 min
Bit rate mode               : Constant
Bit rate                    : 384 kb/s
Channel(s)                  : 6 channels
Channel positions           : Front: L C R, Side: L R, LFE
Sampling rate               : 48.0 kHz
Frame rate                  : 31.250 FPS (1536 spf)
Compression mode            : Lossy
Stream size                 : 276 MiB (20%)
Alignment                   : Split accross interleaves
Interleave, duration        : 42  ms (1.00 video frame)
Interleave, preload duratio : 500  ms


picpicpicpicpic
Для увеличения картинки щелкните мышкой по превью

Этот торрент недоступен для скачивания без регистрации, однако доступен по публичной magnet-ссылке (источники с публичных трекеров). Перед использованием ссылки прочтите, пожалуйста Пользовательское соглашение, а также как можно дольше оставайтесь на раздаче! Для того, чтобы скачать сам торрент-файл (который видит больше источников), а также для того, чтобы поблагодарить релизера, вам необходимо зарегистрироваться. Если регистрироваться лень - вы можете также попробовать скачать релиз по нашим партнерским ссылкам ниже.

[underverse.su].t70763.torrent
Трекер: Зарегистрирован   [ 04.10.2016 11:17 ]  

Статус: T временная (by Паукан at 04.10.2016 15:55)
Поблагодарили: 1 человек
Тип торрента: публичный - доступные источники с открытых трекеров: 
Размер: 1,37 GB (занимает 0,31 DVDR, для записи нужно 1 болванка DVDR/RW)
 
 
Похожие темы
Форум Тема Автор Торрент Отв. Посл. сооб.
Зарубежное кино HQ Операция Валькирия / Операція Валькірія / Valkyrie (Брайан Сингер) [2008 г., триллер, военный, история, BDRip] Паукан
0 | 0

5 | 1813

6

22.06.2009 09:32

T Зарубежное кино [HDDVDRip / BDRip / WEB-DL / HDTV 1080/720р] Операция Валькирия: Рассвет четвертого Рейха / Beyond Valkyrie: Dawn of the 4th Reich (Клаудио Фах) [2016 г., боевик, военный, история, WEB-DL 1080p] MVO (iTunes) + Original makkol
92 | 6

0 | 626

15

04.10.2016 11:34

T Зарубежное кино [HDDVDRip / BDRip / WEB-DL / HDTV 1080/720р] Операция Валькирия: Рассвет четвертого Рейха / Beyond Valkyrie: Dawn of the 4th Reich (Клаудио Фах) [2016 г., боевик, военный, история, WEB-DL 720p] MVO (iTunes) + Original makkol
33 | 0

0 | 525

9

04.10.2016 11:25

Архив Операция Валькирия / Valkyrie (Брайан Сингер) [2008 г., триллер, драма, военный, история, DVDRip | Рус., Укр. Дубляж] [М@ЛЬВИН@]
0 | 0

8 | 1778

76

05.11.2011 14:44


Яндекс.Метрика powered by Sphinx


В Н И М А Н И Е
Сайт не распространяет и не хранит электронные версии произведений, а лишь бесплатно и без коммерческой выгоды (не требуя взамен платы,
SMS и т.д.) предоставляет доступ к создаваемому пользователями каталогу ссылок на торрент-файлы, которые содержат только списки хеш-сумм.
Убедительная просьба с жалобами обращаться напрямую к пользователю, разместившему торрент файл.

Вверх