Loading...
Error

Как работают машины / Machines: How They Work (1-10 серий из 10) / (Том Кук) [2016 г., документальный, техника, HDTVRip] VO

Статистика раздачи
Размер:  5,33 GB   |    Зарегистрирован:  1 месяц 1 день   |    Скачан:  0 раз

Полного источника не было: 26 дней

Сидов:  0  |  0 KB/s  ]   Личеров:  0  |  0 KB/s  ]

* - сиды/пиры с внешних источников

   
 
Автор Сообщение

ARI71 Пол:Муж

03-Окт-2016 15:32

Как работают машины / Machines: How They Work (1-10 серий из 10)


Год выпуска: 2016
Жанр: документальный, техника
Страна: Канада Discovery Channel
Режиссер: Том Кук
Сюжет фильма:
Описание сериала, собственно, заложено в его названии. Многие видели подобные программы - "Как это устроено?", "Как это работает?", из этой передачи вы узнаете о работе самых разных по устройству и назначению машин.
Качество видео: HDTVRip

Продолжительность: 10 x ~ 00:44:00
Формат: AVI
Видео: XviD, 720x400, ~1541 kbps
Аудио: русский, одноголосый закадровый [профессиональный], AC3 2.0, ~192.00 kbps
(тех. данные всех серий идентичны)

Код:

Общее
Полное имя : D:\Как работают машины GeneralFilm\01 Как работают машины.avi
Формат : AVI
Формат/Информация : Audio Video Interleave
Размер файла : 545 Мбайт
Продолжительность : 43 м.
Общий поток : 1744 Кбит/сек
Программа кодирования : VirtualDubMod 1.5.10.3 | www.virtualdub-fr.org || (build 2550/release)
Библиотека кодирования : VirtualDubMod build 2550/release

Видео
Идентификатор : 0
Формат : MPEG-4 Visual
Профиль формата : Advanced Simple@L5
Параметр BVOP формата : 1
Параметр QPel формата : Нет
Параметр GMC формата : Без точки перехода
Параметр матрицы формата : Выборочная
Идентификатор кодека : XVID
Идентификатор кодека/Подсказка : XviD
Продолжительность : 43 м.
Битрейт : 1541 Кбит/сек
Ширина : 720 пикселей
Высота : 400 пикселей
Соотношение сторон : 16:9
Частота кадров : 30,000 кадров/сек
Цветовое пространство : YUV
Субдискретизация насыщенности : 4:2:0
Битовая глубина : 8 бит
Тип развёртки : Прогрессивная
Метод сжатия : С потерями
Бит/(Пиксели*Кадры) : 0.178
Размер потока : 482 Мбайт (88%)
Библиотека кодирования : XviD 73

Аудио
Идентификатор : 1
Формат : AC-3
Формат/Информация : Audio Coding 3
Расширение режима : CM (complete main)
Параметр Endianness формата : Big
Идентификатор кодека : 2000
Продолжительность : 43 м.
Вид битрейта : Постоянный
Битрейт : 192 Кбит/сек
Каналы : 2 канала
Расположение каналов : Front: L R
Частота : 48,0 КГц
Частота кадров : 31,250 кадров/сек (1536 spf)
Метод сжатия : С потерями
Размер потока : 60,0 Мбайт (11%)
Выравнивание : Разделение по промежуткам
Продолжительность промежутка : 33 мс. (1,00 видеокадр)
Время предзагрузки промежутка : 500 мс.
picpicpicpicpic
Для увеличения картинки щелкните мышкой по превью

Этот торрент недоступен для скачивания без регистрации, однако доступен по публичной magnet-ссылке (источники с публичных трекеров). Перед использованием ссылки прочтите, пожалуйста Пользовательское соглашение, а также как можно дольше оставайтесь на раздаче! Для того, чтобы скачать сам торрент-файл (который видит больше источников), а также для того, чтобы поблагодарить релизера, вам необходимо зарегистрироваться. Если регистрироваться лень - вы можете также попробовать скачать релиз по нашим партнерским ссылкам ниже.

[underverse.su].t72631.torrent
Трекер: Зарегистрирован   [ 07.11.2016 12:44 ]  

Статус: проверено (by ARI71 at 07.11.2016 12:45)
Поблагодарили: пока никто не поблагодарил...
Тип торрента: публичный - доступные источники с открытых трекеров: 
Размер: 5,33 GB (занимает 1,22 DVDR, для записи нужно 2 болванки DVDR/RW)
 
 
Похожие темы
Форум Тема Автор Торрент Отв. Посл. сооб.
Discovery Как работает Вселенная. Чёрные дыры / How the Universe Works. Black Holes [2010 г., документальный, HDTVRip] THE_MECHANIC
1 | 0

12 | 1972

51

01.09.2013 15:44

Discovery Как работают машины / Machines: How They Work (1-10 серий из 10) / (Том Кук) [2016 г., документальный, техника, HDTVRip 720p] VO ARI71
11 | 13

2 | 1515

1

09.10.2016 12:05

Архив Как работает Вселенная / How the Universe Works [все серии] (Discovery Science) [2011 г., научно-популярный; HDTVRip] THE_MECHANIC
0 | 1

13 | 1838

9

25.04.2013 07:41



Последний раз редактировалось: ARI71 (07.11.2016 12:44), всего редактировалось 6 раз(а)

ARI71 Пол:Муж

03-Окт-2016 15:33

Приятного всем просмотра!

Голосуй за трекер!!



ARI71 Пол:Муж

10-Окт-2016 11:49

Добавлена заключительная 10-я серия. Обновите торрент-файл!

    Обновление раздачи завершено!

Яндекс.Метрика powered by Sphinx


В Н И М А Н И Е
Сайт не распространяет и не хранит электронные версии произведений, а лишь бесплатно и без коммерческой выгоды (не требуя взамен платы,
SMS и т.д.) предоставляет доступ к создаваемому пользователями каталогу ссылок на торрент-файлы, которые содержат только списки хеш-сумм.
Убедительная просьба с жалобами обращаться напрямую к пользователю, разместившему торрент файл.

Вверх