Loading...
Error

Лесной патруль / Dark Woods Justice (1 сезон: 1-6 серий из 6) [2016 г., документальный, криминал, HDTVRip] VO

Статистика раздачи
Размер:  3,14 GB   |    Зарегистрирован:  1 месяц 30 дней   |    Скачан:  3 раза
Сидов:  1  |  0 KB/s  ]   Личеров:  0  |  0 KB/s  ]

* - сиды/пиры с внешних источников

   
 
Автор Сообщение

ARI71 Пол:Муж

03-Окт-2016 13:34

Лесной патруль / Dark Woods Justice (1 сезон: 1-6 серий из 6)


Год выпуска: 2016
Жанр: документальный, криминал
Страна: США Discovery Communications, LLC.
Текст читает: Александр Гаврилин
Сюжет фильма:
В национальном парке на Олимпийском полуострове штата Вашингтон полиция борется с растущим числом уголовников, которые считают эту дикую местность своей вотчиной.
Качество видео: HDTVRip

Продолжительность: 6 x ~ 00:44:00
Формат: AVI
Видео: XviD, 720x400, ~1541 kbps
Аудио: русский, одноголосый закадровый [профессиональный], AC3 2.0, ~192.00 kbps
(тех. данные всех серий идентичны)

Код:

Общее
Полное имя : D:\Лесной патруль HitWay\01 Лесной патруль hitway.net.avi
Формат : AVI
Формат/Информация : Audio Video Interleave
Размер файла : 542 Мбайт
Продолжительность : 43 м.
Общий поток : 1744 Кбит/сек
Программа кодирования : VirtualDubMod 1.5.10.3 | www.virtualdub-fr.org || (build 2550/release)
Библиотека кодирования : VirtualDubMod build 2550/release

Видео
Идентификатор : 0
Формат : MPEG-4 Visual
Профиль формата : Advanced Simple@L5
Параметр BVOP формата : 1
Параметр QPel формата : Нет
Параметр GMC формата : Без точки перехода
Параметр матрицы формата : Выборочная
Идентификатор кодека : XVID
Идентификатор кодека/Подсказка : XviD
Продолжительность : 43 м.
Битрейт : 1541 Кбит/сек
Ширина : 720 пикселей
Высота : 400 пикселей
Соотношение сторон : 16:9
Частота кадров : 30,000 кадров/сек
Цветовое пространство : YUV
Субдискретизация насыщенности : 4:2:0
Битовая глубина : 8 бит
Тип развёртки : Прогрессивная
Метод сжатия : С потерями
Бит/(Пиксели*Кадры) : 0.178
Размер потока : 479 Мбайт (88%)
Библиотека кодирования : XviD 73

Аудио
Идентификатор : 1
Формат : AC-3
Формат/Информация : Audio Coding 3
Расширение режима : CM (complete main)
Параметр Endianness формата : Big
Идентификатор кодека : 2000
Продолжительность : 43 м.
Вид битрейта : Постоянный
Битрейт : 192 Кбит/сек
Каналы : 2 канала
Расположение каналов : Front: L R
Частота : 48,0 КГц
Частота кадров : 31,250 кадров/сек (1536 spf)
Метод сжатия : С потерями
Размер потока : 59,7 Мбайт (11%)
Выравнивание : Разделение по промежуткам
Продолжительность промежутка : 33 мс. (1,00 видеокадр)
Время предзагрузки промежутка : 500 мс.
picpicpicpicpic
Для увеличения картинки щелкните мышкой по превью

Этот торрент недоступен для скачивания без регистрации, однако доступен по публичной magnet-ссылке (источники с публичных трекеров). Перед использованием ссылки прочтите, пожалуйста Пользовательское соглашение, а также как можно дольше оставайтесь на раздаче! Для того, чтобы скачать сам торрент-файл (который видит больше источников), а также для того, чтобы поблагодарить релизера, вам необходимо зарегистрироваться. Если регистрироваться лень - вы можете также попробовать скачать релиз по нашим партнерским ссылкам ниже.

[underverse.su].t70745.torrent
Трекер: Зарегистрирован   [ 03.10.2016 13:34 ]  

Статус: проверено (by ARI71 at 03.10.2016 13:39)
Поблагодарили: 1 человек
Тип торрента: публичный - доступные источники с открытых трекеров: 
Размер: 3,14 GB (занимает 0,72 DVDR, для записи нужно 1 болванка DVDR/RW)
 
 
Похожие темы
Форум Тема Автор Торрент Отв. Посл. сооб.
Discovery Лесной патруль / Dark Woods Justice (1 сезон: 1-6 серий из 6) [2016 г., документальный, криминал, HDTVRip 720p] VO ARI71
2 | 1

1 | 493

0

03.10.2016 14:03

ARI71 Пол:Муж

03-Окт-2016 13:35

Приятного всем просмотра!

Голосуй за трекер!!




Яндекс.Метрика powered by Sphinx


В Н И М А Н И Е
Сайт не распространяет и не хранит электронные версии произведений, а лишь бесплатно и без коммерческой выгоды (не требуя взамен платы,
SMS и т.д.) предоставляет доступ к создаваемому пользователями каталогу ссылок на торрент-файлы, которые содержат только списки хеш-сумм.
Убедительная просьба с жалобами обращаться напрямую к пользователю, разместившему торрент файл.

Вверх