Loading...
Error

Визави / Vis a vis (2 сезон: 1-13 серий из 13) / (Хесус Кольменар, Хесус Родриго, Сандра Гальего) [2016 г., драма, HDTVRip] Original (Esp) + Sub (Rus) [Группа ВК "Мир испанских сериалов"]

Статистика раздачи
Размер:  10,82 GB   |    Зарегистрирован:  1 месяц 10 дней   |    Скачан:  2 раза

Полного источника не было: 24 дня

Сидов:  0  |  0 KB/s  ]   Личеров:  0  |  0 KB/s  ]

* - сиды/пиры с внешних источников

   
 
Автор Сообщение

ARI71 Пол:Муж

03-Окт-2016 10:05

Визави / Vis a vis (2 сезон: 1-13 серий из 13)


Год выпуска: 2016
Жанр: драма
Страна: Испания Globo Media S.A.
Режиссер: Хесус Кольменар, Хесус Родриго, Сандра Гальего
В ролях: Мэгги Сивантос, Роберто Энрикес, Кристина Пласас, Берта Васкес, Альба Флорес, Инма Куэвас, Мария Исабель Диас, Рамиро Блас, Альберто Веласко, Марта Аледо
Сюжет фильма:
Это история о девушке Макарене, которая попадает в тюрьму по обвинению в экономических преступлениях, которые она совершила, влюбившись в своего начальника. Здесь ей придётся не только быстро адаптироваться к новому окружению и обстановке, но и научиться выживать, ведь каждый день пребывания там может стать для неё последним…

Качество видео: HDTVRip

Продолжительность: 13 x ~ 01:15:00
Формат: AVI
Видео: XviD, 720x400, ~1499 kbps
Аудио: испанский, (оригинал), MP3 2.0, ~128.00 kbps
Субтитры: тип: внешние, русский, формат: SRT [Группа ВК "Мир испанских сериалов"]
(тех. данные всех серий идентичны)

Мировая премьера: 20 апреля 2015

Код:

Общее
Полное имя : D:\Vis a vis 2\2x01.avi
Формат : AVI
Формат/Информация : Audio Video Interleave
Размер файла : 904 Мбайт
Продолжительность : 1 ч. 17 м.
Общий поток : 1637 Кбит/сек

Видео
Идентификатор : 0
Формат : MPEG-4 Visual
Профиль формата : Advanced Simple@L5
Параметр BVOP формата : 2
Параметр QPel формата : Нет
Параметр GMC формата : Без точки перехода
Параметр матрицы формата : Default (MPEG)
Идентификатор кодека : XVID
Идентификатор кодека/Подсказка : XviD
Продолжительность : 1 ч. 17 м.
Битрейт : 1499 Кбит/сек
Ширина : 720 пикселей
Высота : 400 пикселей
Соотношение сторон : 16:9
Частота кадров : 25,000 кадров/сек
Цветовое пространство : YUV
Субдискретизация насыщенности : 4:2:0
Битовая глубина : 8 бит
Тип развёртки : Прогрессивная
Метод сжатия : С потерями
Бит/(Пиксели*Кадры) : 0.208
Размер потока : 828 Мбайт (92%)
Библиотека кодирования : XviD 64

Аудио
Идентификатор : 1
Формат : MPEG Audio
Версия формата : Version 1
Профиль формата : Layer 3
Режим : Joint stereo
Расширение режима : MS Stereo
Идентификатор кодека : 55
Идентификатор кодека/Подсказка : MP3
Продолжительность : 1 ч. 17 м.
Вид битрейта : Постоянный
Битрейт : 128 Кбит/сек
Каналы : 2 канала
Частота : 48,0 КГц
Метод сжатия : С потерями
Размер потока : 70,7 Мбайт (8%)
Выравнивание : Разделение по промежуткам
Продолжительность промежутка : 40 мс. (1,00 видеокадр)
Время предзагрузки промежутка : 500 мс.
Релиз от: dimmm2v

Огромное спасибо Группе ВК " Мир испанских сериалов" (Лена Курыжко, Ольга Соколова, Тоня Ботвина) за перевод!
picpicpicpicpic
Для увеличения картинки щелкните мышкой по превью

Этот торрент недоступен для скачивания без регистрации, однако доступен по публичной magnet-ссылке (источники с публичных трекеров). Перед использованием ссылки прочтите, пожалуйста Пользовательское соглашение, а также как можно дольше оставайтесь на раздаче! Для того, чтобы скачать сам торрент-файл (который видит больше источников), а также для того, чтобы поблагодарить релизера, вам необходимо зарегистрироваться. Если регистрироваться лень - вы можете также попробовать скачать релиз по нашим партнерским ссылкам ниже.

[underverse.su].t71511.torrent
Трекер: Зарегистрирован   [ 24.10.2016 16:39 ]  

Статус: T временная (by Паукан at 11.11.2016 12:01)
Поблагодарили: пока никто не поблагодарил...
Тип торрента: публичный - доступные источники с открытых трекеров: 
Размер: 10,82 GB (занимает 2,47 DVDR, для записи нужно 3 болванки DVDR/RW)
 
 
Похожие темы
Форум Тема Автор Торрент Отв. Посл. сооб.
* Зарубежные сериалы Визави / Vis a vis (2 сезон: 1-13 серий из 13) (Хесус Кольменар, Хесус Родриго, Сандра Гальего) [2016 г., драма, HDTVRip] MVO (SunshineStudio) ARI71
11 | 9

2 | 1152

1

27.09.2016 17:04

Зарубежные сериалы Визави / Vis a vis (1 сезон: 1-11 серии из 11) / (Хесус Кольменар, Хесус Родриго, Сандра Гальего) [2015–2016 г., драма, HDTVRip] DVO (SunshineStudio) ARI71
5 | 3

0 | 588

2

16.07.2016 13:11

Зарубежные сериалы [BD / Remux / BDRip / WEB-DL / HDTV 1080/720р] Визави / Vis a vis (2 сезон: 1-13 серий из 13) (Хесус Кольменар, Хесус Родриго, Сандра Гальего) [2016 г., драма, HDTVRip 720p] MVO (SunshineStudio) ARI71
11 | 5

2 | 1172

0

27.09.2016 16:55

Зарубежные сериалы [BD / Remux / BDRip / WEB-DL / HDTV 1080/720р] Визави / Vis a vis (1 сезон: 1-11 серии из 11) / (Хесус Кольменар, Хесус Родриго, Сандра Гальего) [2015–2016 г., драма, HDTVRip 720р] DVO (SunshineStudio) ARI71
1 | 1

1 | 509

2

11.08.2016 09:54



Последний раз редактировалось: ARI71 (24.10.2016 16:38), всего редактировалось 4 раз(а)

ARI71 Пол:Муж

03-Окт-2016 10:05

Приятного всем просмотра!

Голосуй за трекер!!



ARI71 Пол:Муж

08-Окт-2016 12:00

Добавлена заключительная 13-я серия. Обновите торрент-файл!

    Обновление раздачи завершено!

Яндекс.Метрика powered by Sphinx


В Н И М А Н И Е
Сайт не распространяет и не хранит электронные версии произведений, а лишь бесплатно и без коммерческой выгоды (не требуя взамен платы,
SMS и т.д.) предоставляет доступ к создаваемому пользователями каталогу ссылок на торрент-файлы, которые содержат только списки хеш-сумм.
Убедительная просьба с жалобами обращаться напрямую к пользователю, разместившему торрент файл.

Вверх