Loading...
Error

Как работают машины / Machines: How They Work (1-10 серий из 10) / (Том Кук) [2016 г., документальный, техника, HDTVRip 720p] VO

Статистика раздачи
Размер:  12,88 GB   |    Зарегистрирован:  29 дней   |    Скачан:  1 раз

Полного источника не было: 8 часов

Сидов:  0  |  0 KB/s  ]   Личеров:  0  |  0 KB/s  ]

* - сиды/пиры с внешних источников

   
 
Автор Сообщение

ARI71 Пол:Муж

03-Окт-2016 08:14

Как работают машины / Machines: How They Work (1-10 серий из 10)


Год выпуска: 2016
Жанр: документальный, техника
Страна: Канада Discovery Channel
Режиссер: Том Кук
Сюжет фильма:
Описание сериала, собственно, заложено в его названии. Многие видели подобные программы - "Как это устроено?", "Как это работает?", из этой передачи вы узнаете о работе самых разных по устройству и назначению машин.


Качество видео: HDTVRip 720p

Продолжительность: 10 x ~ 00:44:00
Формат: MKV
Видео: MPEG-4 AVC, 1280x720, ~4000 kbps
Аудио: русский, одноголосый (профессиональный), MP2 2.0, ~192.00 kbps
(тех. данные всех серий идентичны)

Код:

Общее
Уникальный идентификатор : 98065740086651496158899570441913498968 (0x49C6C647EF4E62C6F0E64C570169FD58)
Полное имя : D:\Как работают машины 720p RG HitWay\01. Как работают машины.mkv
Формат : Matroska
Версия формата : Version 2
Размер файла : 1,29 Гбайт
Продолжительность : 43 м.
Режим общего битрейта : Постоянный
Общий поток : 4196 Кбит/сек
Программа кодирования : Lavf54.63.104
Библиотека кодирования : Lavf54.63.104 / Lavf54.63.104

Видео
Идентификатор : 1
Формат : AVC
Формат/Информация : Advanced Video Codec
Профиль формата : High@L4.1
Параметр CABAC формата : Да
Параметр ReFrames формата : 3 кадра
Идентификатор кодека : V_MPEG4/ISO/AVC
Продолжительность : 43 м.
Вид битрейта : Постоянный
Битрейт : 4000 Кбит/сек
Ширина : 1280 пикселей
Высота : 720 пикселей
Соотношение сторон : 16:9
Режим частоты кадров : Постоянный
Частота кадров : 30,000 кадров/сек
Стандарт вещания : NTSC
Цветовое пространство : YUV
Субдискретизация насыщенности : 4:2:0
Битовая глубина : 8 бит
Тип развёртки : Прогрессивная
Бит/(Пиксели*Кадры) : 0.145
Размер потока : 1,20 Гбайт (93%)
Default : Нет
Forced : Нет
Цветовой диапазон : Limited
Основные цвета : BT.709
Характеристики трансфера : BT.709
Коэффициенты матрицы : BT.709

Аудио
Идентификатор : 2
Формат : MPEG Audio
Версия формата : Version 1
Профиль формата : Layer 2
Идентификатор кодека : A_MPEG/L2
Идентификатор кодека/Подсказка : MP2
Продолжительность : 43 м.
Вид битрейта : Постоянный
Битрейт : 192 Кбит/сек
Каналы : 2 канала
Частота : 48,0 КГц
Метод сжатия : С потерями
Задержка видео : 13 мс.
Размер потока : 60,3 Мбайт (5%)
Язык : English
Default : Да
Forced : Нет
picpicpicpicpic
Для увеличения картинки щелкните мышкой по превью

Этот торрент недоступен для скачивания без регистрации, однако доступен по публичной magnet-ссылке (источники с публичных трекеров). Перед использованием ссылки прочтите, пожалуйста Пользовательское соглашение, а также как можно дольше оставайтесь на раздаче! Для того, чтобы скачать сам торрент-файл (который видит больше источников), а также для того, чтобы поблагодарить релизера, вам необходимо зарегистрироваться. Если регистрироваться лень - вы можете также попробовать скачать релиз по нашим партнерским ссылкам ниже.

[underverse.su].t72366.torrent
Трекер: Зарегистрирован   [ 05.11.2016 17:37 ]  

Статус: проверено (by ARI71 at 05.11.2016 17:40)
Поблагодарили: пока никто не поблагодарил...
Тип торрента: публичный - доступные источники с открытых трекеров: 
Размер: 12,88 GB (занимает 2,94 DVDR, для записи нужно 3 болванки DVDR/RW)
 
 
Похожие темы
Форум Тема Автор Торрент Отв. Посл. сооб.
Discovery Как работает Вселенная. Чёрные дыры / How the Universe Works. Black Holes [2010 г., документальный, HDTVRip] THE_MECHANIC
1 | 0

12 | 1970

51

01.09.2013 15:44

Discovery Как работают машины / Machines: How They Work (1-10 серий из 10) / (Том Кук) [2016 г., документальный, техника, HDTVRip] VO ARI71
20 | 9

2 | 1389

0

10.10.2016 11:49

Архив Как работает Вселенная / How the Universe Works [все серии] (Discovery Science) [2011 г., научно-популярный; HDTVRip] THE_MECHANIC
0 | 1

13 | 1837

9

25.04.2013 07:41



Последний раз редактировалось: ARI71 (05.11.2016 17:37), всего редактировалось 7 раз(а)

ARI71 Пол:Муж

03-Окт-2016 08:15

Приятного всем просмотра!

Голосуй за трекер!!



ARI71 Пол:Муж

09-Окт-2016 12:05

Добавлена заключительная 10-я серия. Обновите торрент-файл!

    Обновление раздачи завершено!

Яндекс.Метрика powered by Sphinx


В Н И М А Н И Е
Сайт не распространяет и не хранит электронные версии произведений, а лишь бесплатно и без коммерческой выгоды (не требуя взамен платы,
SMS и т.д.) предоставляет доступ к создаваемому пользователями каталогу ссылок на торрент-файлы, которые содержат только списки хеш-сумм.
Убедительная просьба с жалобами обращаться напрямую к пользователю, разместившему торрент файл.

Вверх