Loading...
Error

Александр Кайдановский. По лезвию бритвы (Лариса Кичаева) [2016 г., документальный, кинематограф, биография, IPTVRip]

Статистика раздачи
Размер:  536 MB   |    Зарегистрирован:  6 месяцев   |    Скачан:  2 раза

Полного источника не было: 24 дня

Сидов:  0  |  0 KB/s  ]   Личеров:  0  |  0 KB/s  ]

* - сиды/пиры с внешних источников

   
 
Автор Сообщение

ARI71 Пол:Муж

02-Окт-2016 17:53

Александр Кайдановский. По лезвию бритвы


Год выпуска: 2016
Жанр: документальный, кинематограф, биография
Страна: Россия «Сайенслист»
Режиссер: Лариса Кичаева
В ролях: Александр Балуев, Евгений Миронов, Константин Райкин, Элеонора Шашкова, Георгий Мартиросян, Владимир Качан, Владимир Носик, Сергей Соловьёв, Евгений Цымбал, Инна Пиварс.
Сюжет фильма:
Его называли самым загадочным, самым интеллектуальным, самым свободным актёром нашего кино. Окружающих удивляла та смелость, с какой он мог всё бросить, ощутив малейшую фальшь. Его актёрской вершиной стала главная роль в фильме "Сталкер", который в 1980 году получил специальную премию на Каннском фестивале. Фильм сделал Кайдановского всемирно известным артистом. Но на пике карьеры актёр неожиданно ушёл в тень. И появлялся на экране только тогда, когда очень нужны были деньги. Поняв, что ролей сильнее, чем Сталкер, у него уже не будет, он решил снимать своё кино. И как режиссёр первым научил чувствовать музыку кадра нынешних звёзд Евгения Миронова и Александра Балуева. Но к чувствам рядовых зрителей его эстетика с трудом пробивала себе дорогу...

Алекса́ндр Леони́дович Кайдано́вский (23 июля 1946, Ростов-на-Дону, СССР — 3 декабря 1995, Москва, Россия) — советский и российский актёр, режиссёр, сценарист.
Качество видео: IPTVRip

Продолжительность: 00:44:06
Формат: AVI
Видео: XviD, 704x400, 1498 kbps
Аудио: русский, (оригинал), MP3 2.0, 192.00 kbps

Код:

Общее
Полное имя : D:\Александр Кайдановский. По лезвию бритвы (DaVinci).avi
Формат : AVI
Формат/Информация : Audio Video Interleave
Размер файла : 536 Мбайт
Продолжительность : 44 м.
Общий поток : 1699 Кбит/сек
Библиотека кодирования : VirtualDub build 35491/release

Видео
Идентификатор : 0
Формат : MPEG-4 Visual
Профиль формата : Advanced Simple@L5
Параметр BVOP формата : 2
Параметр QPel формата : Нет
Параметр GMC формата : Без точки перехода
Параметр матрицы формата : Default (MPEG)
Режим смешивания : Сжатый битовый поток
Идентификатор кодека : XVID
Идентификатор кодека/Подсказка : XviD
Продолжительность : 44 м.
Битрейт : 1498 Кбит/сек
Ширина : 704 пикселя
Высота : 400 пикселей
Соотношение сторон : 16:9
Частота кадров : 25,000 кадров/сек
Цветовое пространство : YUV
Субдискретизация насыщенности : 4:2:0
Битовая глубина : 8 бит
Тип развёртки : Прогрессивная
Метод сжатия : С потерями
Бит/(Пиксели*Кадры) : 0.213
Размер потока : 472 Мбайт (88%)
Библиотека кодирования : XviD 73

Аудио
Идентификатор : 1
Формат : MPEG Audio
Версия формата : Version 1
Профиль формата : Layer 3
Режим : Joint stereo
Идентификатор кодека : 55
Идентификатор кодека/Подсказка : MP3
Продолжительность : 44 м.
Вид битрейта : Постоянный
Битрейт : 192 Кбит/сек
Каналы : 2 канала
Частота : 48,0 КГц
Метод сжатия : С потерями
Размер потока : 60,6 Мбайт (11%)
Выравнивание : Разделение по промежуткам
Продолжительность промежутка : 40 мс. (1,00 видеокадр)
Время предзагрузки промежутка : 500 мс.
Релиз группы:

picpicpicpicpic
Для увеличения картинки щелкните мышкой по превью

Этот торрент недоступен для скачивания без регистрации, однако доступен по публичной magnet-ссылке (источники с публичных трекеров). Перед использованием ссылки прочтите, пожалуйста Пользовательское соглашение, а также как можно дольше оставайтесь на раздаче! Для того, чтобы скачать сам торрент-файл (который видит больше источников), а также для того, чтобы поблагодарить релизера, вам необходимо зарегистрироваться. Если регистрироваться лень - вы можете также попробовать скачать релиз по нашим партнерским ссылкам ниже.

[underverse.su].t70738.torrent
Трекер: Зарегистрирован   [ 02.10.2016 17:53 ]  

Статус: проверено (by ARI71 at 02.10.2016 17:56)
Поблагодарили: пока никто не поблагодарил...
Тип торрента: публичный - доступные источники с открытых трекеров: 
Размер: 536 MB (занимает 0,12 DVDR, для записи нужно 1 болванка DVDR/RW)
 
 
Похожие темы
Форум Тема Автор Торрент Отв. Посл. сооб.
Зарубежное кино [DVDRip, Low-Res HDRip, и т.д.] Александр / Alexander (Оливер Стоун) [2004 г., боевик, мелодрама, драма, приключения, военный, биография, история, ..., HD DVDRip] Joey
1 | 0

1 | 1288

8

17.06.2010 12:55

Зарубежное кино [DVDRip, Low-Res HDRip, и т.д.] Александр / Alexander (Оливер Стоун) [2004 г., боевик, драма, мелодрама, приключения, военный, биография, история, HDRip ] Dub ryzhkovroman
0 | 0

6 | 1343

1

18.02.2013 17:27

Зарубежное кино [DVDRip, Low-Res HDRip, и т.д.] Александр и ужасный, кошмарный, нехороший, очень плохой день / Alexander and the Terrible, Horrible, No Good, Very Bad Day (Мигель Артета / Miguel Arteta) [2014 г., комедия, семейный, HDRip] Dub 90ytr90
2 | 0

0 | 492

14

09.02.2015 16:55

Зарубежное кино [DVDRip, Low-Res HDRip, и т.д.] Александр и ужасный, кошмарный, нехороший, очень плохой день / Alexander and the Terrible, Horrible, No Good, Very Bad Day (Мигель Артета / Miguel Arteta) [2014 г., комедия, семейный, HDRip] Dub 90ytr90
1 | 0

0 | 539

8

09.02.2015 17:33

Кино СССР Александр Невский (Сергей Эйзенштейн, Дмитрий Васильев, Борис Иванов) [1938 г., история, DVDRip] 90ytr90
1 | 0

0 | 995

6

06.12.2014 21:56

Информационно-аналитические передачи Александр Невзоров: "Уроки атеизма" [2012 г., документальный, TVRip] матроскин
1 | 0

1 | 1387

6

27.04.2013 06:30

Исторические фильмы Александр Великий / Alexander der Grobe (1-2 серии из 2) / (Мартин Казаро Мендез, Кристиан Твенте) [2014 г., документальный, игровой, история, SatRip] DVO (Видеофильм ТВ) ARI71
1 | 0

1 | 575

5

16.10.2016 08:07

Личности Александр Блок. Я медленно сходил с ума (Анна Филимонова) [2016 г., документальный, биография, SatRip] ARI71
0 | 0

0 | 420

1

21.11.2016 14:54

Личности Александр Зацепин. Этот мир придуман не мной (Филипп Сурков) [2010 г., документальный, биография, искусство, культура, SatRip] ARI71
0 | 0

0 | 739

1

21.07.2016 18:16

Личности Александр Кайдановский. Сжимая лезвие в ладони (Вера Травкина) [2016 г., документальный, биография, SatRip] ARI71
1 | 0

0 | 674

6

23.07.2016 09:00

ARI71 Пол:Муж

02-Окт-2016 18:01

Приятного всем просмотра!

Голосуй за трекер!!




Яндекс.Метрика powered by Sphinx


В Н И М А Н И Е
Сайт не распространяет и не хранит электронные версии произведений, а лишь бесплатно и без коммерческой выгоды (не требуя взамен платы,
SMS и т.д.) предоставляет доступ к создаваемому пользователями каталогу ссылок на торрент-файлы, которые содержат только списки хеш-сумм.
Убедительная просьба с жалобами обращаться напрямую к пользователю, разместившему торрент файл.

Вверх