Loading...
Error

Секреты Чингисхана / The Secrets of Genghis Khan (Билл Кертис) [2004 г., документальный, археология, история, научно-познавательный, SatRip] VO (Инис)

Статистика раздачи
Размер:  1,03 GB   |    Зарегистрирован:  2 месяца 3 дня   |    Скачан:  8 раз

Полного источника не было: 2 дня 18 часов

Сидов:  0  |  0 KB/s  ]   Личеров:  0  |  0 KB/s  ]

* - сиды/пиры с внешних источников

   
 
Автор Сообщение

ARI71 Пол:Муж

02-Окт-2016 13:42

Секреты Чингисхана / The Secrets of Genghis Khan


Год выпуска: 2004
Жанр: документальный, археология, история, научно-познавательный
Страна: США History Channel, Kurtis Productions
Режиссер: Билл Кертис
Сюжет фильма:
Легенда гласит, что величайший воин всех времён и народов был похоронен в тайной гробнице вместе со всеми сокровищами, которые завоевал при жизни. Золото и серебро ислама, личные сокровища багдадского калифа, произведения искусства крупнейших городов – лишь малая часть того, что исследователи ожидают найти в захоронении Чингисхана. Создатели фильма, вместе с рассказом о самом Чингисхане и его империи, приглашают стать свидетелями захватывающего поиска сокровищ.
Качество видео: SatRip

Продолжительность: 01:30:31
Формат: AVI
Видео: XviD, 704x400, 1498 kbps
Аудио: русский, одноголосый закадровый (профессиональный, Инис), MP3 2.0, 128.00 kbps

Код:

Общее
Полное имя : D:\Секреты Чингисхана (DaVinci).avi
Формат : AVI
Формат/Информация : Audio Video Interleave
Размер файла : 1,03 Гбайт
Продолжительность : 1 ч. 30 м.
Общий поток : 1636 Кбит/сек
Библиотека кодирования : VirtualDub build 35390/release

Видео
Идентификатор : 0
Формат : MPEG-4 Visual
Профиль формата : Advanced Simple@L5
Параметр BVOP формата : 2
Параметр QPel формата : Нет
Параметр GMC формата : Без точки перехода
Параметр матрицы формата : Default (H.263)
Режим смешивания : Сжатый битовый поток
Идентификатор кодека : XVID
Идентификатор кодека/Подсказка : XviD
Продолжительность : 1 ч. 30 м.
Битрейт : 1498 Кбит/сек
Ширина : 704 пикселя
Высота : 400 пикселей
Соотношение сторон : 16:9
Частота кадров : 25,000 кадров/сек
Цветовое пространство : YUV
Субдискретизация насыщенности : 4:2:0
Битовая глубина : 8 бит
Тип развёртки : Прогрессивная
Метод сжатия : С потерями
Бит/(Пиксели*Кадры) : 0.213
Размер потока : 970 Мбайт (92%)
Библиотека кодирования : XviD 1.2.1 (UTC 2008-12-04)

Аудио
Идентификатор : 1
Формат : MPEG Audio
Версия формата : Version 1
Профиль формата : Layer 3
Режим : Joint stereo
Расширение режима : MS Stereo
Идентификатор кодека : 55
Идентификатор кодека/Подсказка : MP3
Продолжительность : 1 ч. 30 м.
Вид битрейта : Постоянный
Битрейт : 128 Кбит/сек
Каналы : 2 канала
Частота : 48,0 КГц
Метод сжатия : С потерями
Размер потока : 82,9 Мбайт (8%)
Выравнивание : Разделение по промежуткам
Продолжительность промежутка : 40 мс. (1,00 видеокадр)
Время предзагрузки промежутка : 500 мс.
Релиз группы:

picpicpicpicpic
Для увеличения картинки щелкните мышкой по превью

Этот торрент недоступен для скачивания без регистрации, однако доступен по публичной magnet-ссылке (источники с публичных трекеров). Перед использованием ссылки прочтите, пожалуйста Пользовательское соглашение, а также как можно дольше оставайтесь на раздаче! Для того, чтобы скачать сам торрент-файл (который видит больше источников), а также для того, чтобы поблагодарить релизера, вам необходимо зарегистрироваться. Если регистрироваться лень - вы можете также попробовать скачать релиз по нашим партнерским ссылкам ниже.

[underverse.su].t70734.torrent
Трекер: Зарегистрирован   [ 02.10.2016 13:42 ]  

Статус: проверено (by ARI71 at 02.10.2016 13:47)
Поблагодарили: пока никто не поблагодарил...
Тип торрента: публичный - доступные источники с открытых трекеров: 
Размер: 1,03 GB (занимает 0,24 DVDR, для записи нужно 1 болванка DVDR/RW)
 
 

ARI71 Пол:Муж

02-Окт-2016 13:44

Приятного всем просмотра!

Голосуй за трекер!!




Яндекс.Метрика powered by Sphinx


В Н И М А Н И Е
Сайт не распространяет и не хранит электронные версии произведений, а лишь бесплатно и без коммерческой выгоды (не требуя взамен платы,
SMS и т.д.) предоставляет доступ к создаваемому пользователями каталогу ссылок на торрент-файлы, которые содержат только списки хеш-сумм.
Убедительная просьба с жалобами обращаться напрямую к пользователю, разместившему торрент файл.

Вверх